[更早] [其他] [喜剧] [BD-1080P] 霹靂先鋒 Final.Justice.1988.1080p.BluRay.x264-aBD 6.55GB

uump4 9天前 134

帖子完整标题:霹靂先鋒 Final.Justice.1988.1080p.BluRay.x264-aBD 6.55GB


悠悠MP4_MP4电影下载_霹靂先鋒 Final.Justice.1988.1080p.BluRay.x264-aBD 6.55GB

◎译  名 霹雳先锋 / Final Justice / Pik lik sin fung
◎片  名 霹靂先鋒
◎年  代 1988
◎产  地 中国香港
◎类  别 喜剧 / 动作 / 犯罪
◎语  言 粤语 / 英语
◎上映日期 1988-06-23(中国香港)
◎IMDb评分  6.2/10 from 227 users
◎IMDb链接  http://www.imdb.com/title/tt0126301
◎豆瓣评分 7.0/10 from 8591 users
◎豆瓣链接 https://movie.douban.com/subject/1871220/
◎片  长 95分钟
◎导  演 黄柏文 Parkman Wong
◎编  剧 冯瑞熊 James Fung
◎主  演 李修贤 Danny Lee
       周星驰 Stephen Chow
       成奎安 Fui-On Shing
       何家驹 Ka-Kui Ho
       黄光亮 Kwong Leung Wong
       韩坤 Victor Hon Kwan
       王俊棠 Ricky Wong Chun-Tong


◎标  签 周星驰 | 香港 | 李修贤 | 香港电影 | 动作 | 警匪 | 喜剧 | 1988

◎简  介  

  华探长张铁柱(李修贤 饰)打拼十几年才有了探长地位,此人嫉恶如仇不事逢迎,与新任督察罗Sir多有摩擦,辛苦破案结果反被后者刁难。另一方面,悍匪“法官”(成奎安 饰)一伙购枪策划大行动,偷车贼伟仔(周星驰 饰)被法官收为外围助手,向其提供犯罪用车。法官与手下狂牛(黄光亮 饰)和鸡翼( 何家驹 饰)等人洗劫赌档,同一天伟仔因偷车嫌疑被张铁柱抓捕入监,赌档事发,罗Sir不顾张铁柱作证将伟仔定为嫌疑人,令张与伟仔二人大为不满。张铁柱将伟仔释放,同时要求伟仔合作抓捕法官一伙。购入武器的法官一伙战力大增,行事愈发嚣张,与其他帮派当街火并,伟仔被卷入杀人案件,只得配合张铁柱,一警一贼终于开始合作……

◎获奖情况  

  第25届台北金马影展(1988)
  金马奖 最佳男配角 周星驰

  第8届香港电影金像奖(1989)
  最佳男配角(提名) 周星驰
  最佳新演员(提名) 周星驰

Video
ID                                       : 1
Format                                   : AVC
Format/Info                              : Advanced Video Codec
Format profile                           : [email protected]
Format settings                          : CABAC / 4 Ref Frames
Format settings, CABAC                   : Yes
Format settings, ReFrames                : 4 frames
Muxing mode                              : Header stripping
Codec ID                                 : V_MPEG4/ISO/AVC
Duration                                 : 1 h 37 min
Bit rate                                 : 8 936 kb/s
Width                                    : 1 920 pixels
Height                                   : 1 040 pixels
Display aspect ratio                     : 1.85:1
Frame rate mode                          : Constant
Frame rate                               : 24.000 FPS
Color space                              : YUV
Chroma subsampling                       : 4:2:0
Bit depth                                : 8 bits
Scan type                                : Progressive
Bits/(Pixel*Frame)                       : 0.186
Stream size                              : 5.98 GiB (91%)
Writing library                          : x264 core 115 r1937 aa21558
Encoding settings                        : cabac=1 / ref=4 / deblock=1:-1:-1 / analyse=0x3:0x113 / me=umh / subme=7 / psy=1 / psy_rd=1.00:0.00 / mixed_ref=1 / me_range=16 / chroma_me=1 / trellis=1 / 8x8dct=1 / cqm=0 / deadzone=21,11 / fast_pskip=1 / chroma_qp_offset=-2 / threads=12 / sliced_threads=0 / nr=0 / decimate=1 / interlaced=0 / bluray_compat=0 / constrained_intra=0 / bframes=3 / b_pyramid=2 / b_adapt=2 / b_bias=0 / direct=3 / weightb=1 / open_gop=0 / weightp=2 / keyint=250 / keyint_min=24 / scenecut=40 / intra_refresh=0 / rc_lookahead=40 / rc=2pass / mbtree=1 / bitrate=8936 / ratetol=1.0 / qcomp=0.60 / qpmin=0 / qpmax=69 / qpstep=4 / cplxblur=20.0 / qblur=0.5 / vbv_maxrate=50000 / vbv_bufsize=50000 / nal_hrd=none / ip_ratio=1.40 / aq=1:1.00
Language                                 : Chinese
Default                                  : Yes
Forced                                   : Yes

Audio
ID                                       : 2
Format                                   : AC-3
Format/Info                              : Audio Coding 3
Muxing mode                              : Header stripping
Codec ID                                 : A_AC3
Duration                                 : 1 h 37 min
Bit rate mode                            : Constant
Bit rate                                 : 640 kb/s
Channel(s)                               : 6 channels
Channel positions                        : Front: L C R, Side: L R, LFE
Sampling rate                            : 48.0 kHz
Frame rate                               : 31.250 FPS (1536 SPF)
Bit depth                                : 16 bits
Compression mode                         : Lossy
Stream size                              : 448 MiB (7%)
Language                                 : Chinese
Service kind                             : Complete Main
Default                                  : Yes
Forced                                   : Yes

Text
ID                                       : 3
Format                                   : UTF-8
Codec ID                                 : S_TEXT/UTF8
Codec ID/Info                            : UTF-8 Plain Text
Language                                 : English
Default                                  : Yes
Forced                                   : No


悠悠MP4_MP4电影下载_霹靂先鋒 Final.Justice.1988.1080p.BluRay.x264-aBD 6.55GB悠悠MP4_MP4电影下载_霹靂先鋒 Final.Justice.1988.1080p.BluRay.x264-aBD 6.55GB悠悠MP4_MP4电影下载_霹靂先鋒 Final.Justice.1988.1080p.BluRay.x264-aBD 6.55GB


提示:如迅雷下载提示"任务出错"、"因版权无法下载",请尝试【迅雷5】
上传的附件:
最新回复 (2)
  • chuntiancai 9天前
    0 引用 2
    谢谢分享老港片!
  • 天色已黄昏 9天前
    0 引用 3
    周星驰的处男作
返回
本站所有资源均收集自互联网,没有提供影片资源存储, 也未参与录制、上传,若本站收录的资源无意侵犯了您的权益, 请联系邮箱:gogoimgs#gmail.com(#=@)