[更早] [其他] [剧情] [BD-1080P] 英雄无泪 Heroes.Shed.No.Tears.1986.CHINESE.1080p.BluRay.x264.DTS-FGT 8.99GB

uump4 10天前 303

帖子完整标题:英雄无泪 Heroes.Shed.No.Tears.1986.CHINESE.1080p.BluRay.x264.DTS-FGT 8.99GB


悠悠MP4_MP4电影下载_英雄无泪 Heroes.Shed.No.Tears.1986.CHINESE.1080p.BluRay.x264.DTS-FGT 8.99GB

◎译  名 Heroes Shed No Tears
◎片  名 英雄无泪
◎年  代 1986
◎产  地 中国香港
◎类  别 剧情 / 动作
◎语  言 粤语
◎上映日期 1986-09-05
◎IMDb评分  6.3/10 from 893 users
◎IMDb链接  http://www.imdb.com/title/tt0092264
◎豆瓣评分 6.5/10 from 578 users
◎豆瓣链接 https://movie.douban.com/subject/1295396/
◎片  长 85分钟
◎导  演 吴宇森
◎编  剧 吴宇森
◎主  演 林正英
       高雄
       钱月笙
       马英俊
       Phillip Loffredo
       Cecile Le Bailly


◎标  签 吴宇森 | 香港 | 林正英 | 香港电影 | 动作 | 战争 | 1986 | 高雄

◎简  介  

  1986吴宇森编导的动作片,林正英、钱月笙主演。陈忠受美国秘密聘请捉拿泰籍毒枭,条件是保送儿子及小姨移民美国,陈及同行在行动中受到重创。在困境中,重遇美国爆破专家,为帮陈忠逃离,报答救命之恩,决定以死相助。

Video
ID                                       : 1
Format                                   : AVC
Format/Info                              : Advanced Video Codec
Format profile                           : [email protected]
Format settings                          : CABAC / 4 Ref Frames
Format settings, CABAC                   : Yes
Format settings, Reference frames        : 4 frames
Codec ID                                 : V_MPEG4/ISO/AVC
Duration                                 : 1 h 28 min
Bit rate                                 : 11.5 Mb/s
Width                                    : 1 920 pixels
Height                                   : 1 036 pixels
Display aspect ratio                     : 1.85:1
Frame rate mode                          : Constant
Frame rate                               : 23.976 (24000/1001) FPS
Color space                              : YUV
Chroma subsampling                       : 4:2:0
Bit depth                                : 8 bits
Scan type                                : Progressive
Bits/(Pixel*Frame)                       : 0.241
Stream size                              : 7.12 GiB (79%)
Title                                    : Heroes.Shed.No.Tears.1986.CHINESE.1080p.BluRay.x264.DTS-FGT
Writing library                          : x264 core 148 r2795M aaa9aa8
Encoding settings                        : cabac=1 / ref=4 / deblock=1:-2:-2 / analyse=0x3:0x113 / me=umh / subme=9 / psy=1 / psy_rd=1.00:0.15 / mixed_ref=1 / me_range=16 / chroma_me=1 / trellis=2 / 8x8dct=1 / cqm=0 / deadzone=21,11 / fast_pskip=1 / chroma_qp_offset=-3 / threads=24 / lookahead_threads=3 / sliced_threads=0 / nr=0 / decimate=1 / interlaced=0 / bluray_compat=0 / constrained_intra=0 / bframes=3 / b_pyramid=2 / b_adapt=1 / b_bias=0 / direct=3 / weightb=1 / open_gop=0 / weightp=2 / keyint=250 / keyint_min=25 / scenecut=40 / intra_refresh=0 / rc_lookahead=50 / rc=2pass / mbtree=1 / bitrate=11500 / ratetol=1.0 / qcomp=0.60 / qpmin=0 / qpmax=69 / qpstep=4 / cplxblur=20.0 / qblur=0.5 / vbv_maxrate=31250 / vbv_bufsize=31250 / nal_hrd=none / filler=0 / ip_ratio=1.40 / aq=1:1.00
Default                                  : Yes
Forced                                   : No

Audio #1
ID                                       : 2
Format                                   : DTS
Format/Info                              : Digital Theater Systems
Codec ID                                 : A_DTS
Duration                                 : 1 h 28 min
Bit rate mode                            : Constant
Bit rate                                 : 1 509 kb/s
Channel(s)                               : 6 channels
Channel layout                           : C L R Ls Rs LFE
Sampling rate                            : 48.0 kHz
Frame rate                               : 93.750 FPS (512 SPF)
Bit depth                                : 24 bits
Compression mode                         : Lossy
Stream size                              : 956 MiB (10%)
Title                                    : Heroes.Shed.No.Tears.1986.CHINESE.1080p.BluRay.x264.DTS-FGT
Language                                 : Chinese
Default                                  : Yes
Forced                                   : No

Audio #2
ID                                       : 3
Format                                   : DTS
Format/Info                              : Digital Theater Systems
Codec ID                                 : A_DTS
Duration                                 : 1 h 28 min
Bit rate mode                            : Constant
Bit rate                                 : 1 509 kb/s
Channel(s)                               : 6 channels
Channel layout                           : C L R Ls Rs LFE
Sampling rate                            : 48.0 kHz
Frame rate                               : 93.750 FPS (512 SPF)
Bit depth                                : 24 bits
Compression mode                         : Lossy
Stream size                              : 956 MiB (10%)
Title                                    : Heroes.Shed.No.Tears.1986.CHINESE.1080p.BluRay.x264.DTS-FGT
Language                                 : English
Default                                  : No
Forced                                   : No

Text
ID                                       : 4
Format                                   : UTF-8
Codec ID                                 : S_TEXT/UTF8
Codec ID/Info                            : UTF-8 Plain Text
Duration                                 : 1 h 25 min
Bit rate                                 : 25 b/s
Count of elements                        : 605
Stream size                              : 16.0 KiB (0%)
Language                                 : English
Default                                  : Yes
Forced                                   : No

Menu
00:00:00.000                             : en:Chapter 01
00:08:08.696                             : en:Chapter 02
00:14:55.978                             : en:Chapter 03
00:21:33.917                             : en:Chapter 04
00:30:59.482                             : en:Chapter 05
00:37:13.022                             : en:Chapter 06
00:46:08.015                             : en:Chapter 07
00:55:42.088                             : en:Chapter 08
01:02:50.016                             : en:Chapter 09
01:09:47.641                             : en:Chapter 10
01:17:21.428                             : en:Chapter 11
01:27:00.089                             : en:Chapter 12
01:28:30.805                             : en:Chapter 13


悠悠MP4_MP4电影下载_英雄无泪 Heroes.Shed.No.Tears.1986.CHINESE.1080p.BluRay.x264.DTS-FGT 8.99GB悠悠MP4_MP4电影下载_英雄无泪 Heroes.Shed.No.Tears.1986.CHINESE.1080p.BluRay.x264.DTS-FGT 8.99GB悠悠MP4_MP4电影下载_英雄无泪 Heroes.Shed.No.Tears.1986.CHINESE.1080p.BluRay.x264.DTS-FGT 8.99GB


提示:如迅雷下载提示"任务出错"、"因版权无法下载",请尝试【迅雷5】
上传的附件:
最新回复 (2)
  • chuntiancai 9天前
    0 引用 2
    谢谢分享老港片!
  • 天色已黄昏 9天前
    0 引用 3
    有没有粤语?
返回
本站所有资源均收集自互联网,没有提供影片资源存储, 也未参与录制、上传,若本站收录的资源无意侵犯了您的权益, 请联系邮箱:gogoimgs#gmail.com(#=@)