[更早] [欧美] [剧情] [WEB-1080P] 怒海情波 Adventure.1945.1080p.AMZN.WEBRip.DDP2.0.x264-SbR 9.82GB

uump4 26天前 421

帖子完整标题:怒海情波 Adventure.1945.1080p.AMZN.WEBRip.DDP2.0.x264-SbR 9.82GB


悠悠MP4_MP4电影下载_怒海情波 Adventure.1945.1080p.AMZN.WEBRip.DDP2.0.x264-SbR 9.82GB

◎译  名 怒海情波
◎片  名 Adventure
◎年  代 1945
◎产  地 美国
◎类  别 剧情 / 喜剧 / 爱情
◎语  言 英语
◎上映日期 1945-12-28
◎IMDb评分 6.2/10 from 824 users
◎IMDb链接 http://www.imdb.com/title/tt0037494
◎豆瓣评分 0/10 from 0 users
◎豆瓣链接 https://movie.douban.com/subject/1301121/
◎片  长 135 分钟
◎导  演 维克多·弗莱明 Victor Fleming
◎编  剧 弗雷德里克·黑兹利特·布伦南 Frederick Hazlitt Brennan / Clyde Brion Davis / 保罗·格林 Paul Green / 文森特·劳伦斯 Vincent Lawrence / 索恩亚· 莱维恩 Sonya Levien / Jan Lustig / 约翰·李·马辛 John Lee Mahin / 玛格丽特·罗伯茨 Marguerite Roberts / 凯西·罗宾逊 Casey Robinson / 阿德拉·罗杰斯·圣约翰斯 Adela Rogers St. Johns / 罗伯特·特尔伦 Robert Thoeren / 安东尼·维勒 Anthony Veiller / William H. Wright / 萨姆·津巴利斯特 Sam Zimbalist
◎主  演 克拉克·盖博 Clark Gable
      葛丽亚·嘉逊 Greer Garson
      琼·布朗德尔 Joan Blondell
      托马斯·米切尔 Thomas Mitchell
      汤姆·塔利 Tom Tully
      约翰·奎尔伦 John Qualen
      理查德·海顿 Richard Haydn
      丽娜·罗迈 Lina Romay
      菲利普·梅里韦尔 Philip Merivale
      哈里·达文波特 Harry Davenport
      斯坦利·安德鲁斯 Stanley Andrews
      弗洛伦丝·奥尔 Florence Auer
      Pedro de Cordoba
      雷克斯·英格拉姆 Rex Ingram
      Garry Owen
      哈里·威尔逊 Harry Wilson
      Richard Abbott
      莫里斯·安克鲁姆 Morris Ankrum
      Martha Bamattre
      Nina Bara
      Vangie Beilby
      Genevieve Bell
      John Berkes
      Barbara Billingsley
      保罗·伯奇 Paul Birch
      贝蒂·布莱丝 Betty Blythe
      Aileen Carlyle
      Miguel Contreras
      D'Arcy Corrigan
      Franco Corsaro
      约瑟夫·奎汉 Joseph Crehan
      Max Davidson
      Sayre Dearing
      George L. Derrick
      Carli Elinor
      Dick Elliott
      Fred Farrell
      贝丝·弗劳尔斯 Bess Flowers
      拜伦·弗格 Byron Foulger
      Fred Fox
      马丁·加拉拉加 Martin Garralaga
      Jon Gilbreath
      Augie Gomez
      Dorothy Granger
      Charles Haefeli
      Frank Hagney
      约翰·哈蒙 John Harmon
      Fred Hoose
      埃丝特·霍华德 Esther Howard
      Gladden James
      汤姆·金斯顿 Tom Kingston
      Charles La Torre
      Gene Leslie
      Marta Linden
      Eric Mayne
      克莱尔·麦克道尔 Claire McDowell
      Helen McLeod
      Charles Meakin
      凯·梅德福 Kay Medford
      Chef Milani
      Charles Millsfield
      Sue Moore
      William Newell
      Alex Novinsky
      罗伯特·埃米特·奥康纳 Robert Emmett O'Connor
      Kanza Omar
      Alexander Palasthy
      拉尔夫·彼得斯 Ralph Peters
      Frank Pharr
      李·费尔普斯 Lee Phelps
      June Pickerell
      John Piffle
      里贝尔·蓝道尔 Rebel Randall
      Ed Randolph
      Charles Regan
      Blanche Rose


◎标  签 克拉克·盖博 | Greer_Garson | GreerGarson | 1945 | 美国 | Joan_Blondell | 葛丽亚·嘉逊 | 经典

◎简  介

  暂无相关剧情介绍
Video
ID : 1
Format : AVC
Format/Info : Advanced Video Codec
Format profile : [email protected]
Format settings : CABAC / 4 Ref Frames
Format settings, CABAC : Yes
Format settings, Reference frames : 4 frames
Codec ID : V_MPEG4/ISO/AVC
Duration : 2 h 5 min
Bit rate mode : Variable
Bit rate : 10.7 Mb/s
Maximum bit rate : 15.0 Mb/s
Width : 1 440 pixels
Height : 1 080 pixels
Display aspect ratio : 4:3
Frame rate mode : Constant
Frame rate : 23.976 (24000/1001) FPS
Color space : YUV
Chroma subsampling : 4:2:0
Bit depth : 8 bits
Scan type : Progressive
Bits/(Pixel*Frame) : 0.288
Stream size : 9.42 GiB (96%)
Writing library : x264 core 148 r2623 d5b2374
Encoding settings : cabac=1 / ref=4 / deblock=1:-1:-1 / analyse=0x3:0x133 / me=umh / subme=9 / psy=1 / psy_rd=1.00:0.15 / mixed_ref=1 / me_range=24 / chroma_me=1 / trellis=2 / 8x8dct=1 / cqm=0 / deadzone=21,11 / fast_pskip=1 / chroma_qp_offset=-3 / threads=34 / lookahead_threads=5 / sliced_threads=0 / nr=150 / decimate=1 / interlaced=0 / bluray_compat=0 / constrained_intra=0 / bframes=8 / b_pyramid=2 / b_adapt=2 / b_bias=0 / direct=3 / weightb=1 / open_gop=0 / weightp=2 / keyint=120 / keyint_min=61 / scenecut=0 / intra_refresh=0 / rc_lookahead=120 / rc=crf / mbtree=1 / crf=18.0 / qcomp=0.60 / qpmin=0 / qpmax=69 / qpstep=4 / vbv_maxrate=15000 / vbv_bufsize=31250 / crf_max=0.0 / nal_hrd=vbr / filler=0 / ip_ratio=1.40 / aq=3:1.00
Language : English
Default : Yes
Forced : No
Color range : Limited
Color primaries : BT.709
Transfer characteristics : BT.709
Matrix coefficients : BT.709

Audio
ID : 2
Format : E-AC-3
Format/Info : Enhanced AC-3
Commercial name : Dolby Digital Plus
Codec ID : A_EAC3
Duration : 2 h 5 min
Bit rate mode : Constant
Bit rate : 224 kb/s
Channel(s) : 2 channels
Channel layout : L R
Sampling rate : 48.0 kHz
Frame rate : 31.250 FPS (1536 SPF)
Compression mode : Lossy
Stream size : 202 MiB (2%)
Language : English
Service kind : Complete Main
Default : Yes
Forced : No

Text #1
ID : 3
Format : UTF-8
Codec ID : S_TEXT/UTF8
Codec ID/Info : UTF-8 Plain Text
Language : English
Default : No
Forced : No

Text #2
ID : 4
Format : UTF-8
Codec ID : S_TEXT/UTF8
Codec ID/Info : UTF-8 Plain Text
Title : SDH
Language : English
Default : No
Forced : No

悠悠MP4_MP4电影下载_怒海情波 Adventure.1945.1080p.AMZN.WEBRip.DDP2.0.x264-SbR 9.82GB悠悠MP4_MP4电影下载_怒海情波 Adventure.1945.1080p.AMZN.WEBRip.DDP2.0.x264-SbR 9.82GB悠悠MP4_MP4电影下载_怒海情波 Adventure.1945.1080p.AMZN.WEBRip.DDP2.0.x264-SbR 9.82GB悠悠MP4_MP4电影下载_怒海情波 Adventure.1945.1080p.AMZN.WEBRip.DDP2.0.x264-SbR 9.82GB悠悠MP4_MP4电影下载_怒海情波 Adventure.1945.1080p.AMZN.WEBRip.DDP2.0.x264-SbR 9.82GB悠悠MP4_MP4电影下载_怒海情波 Adventure.1945.1080p.AMZN.WEBRip.DDP2.0.x264-SbR 9.82GB


提示:如迅雷下载提示"任务出错"、"因版权无法下载",请尝试【迅雷5】
上传的附件:
最新回复 (0)
返回
本站所有资源均收集自互联网,没有提供影片资源存储, 也未参与录制、上传,若本站收录的资源无意侵犯了您的权益, 请联系邮箱:gogoimgs#gmail.com(#=@)