[2015] [欧美] [其他] [WEB-1080P] 扑克顽童 Kidpoker.2015.1080p.WEBRip.X264-DEFLATE 5.90GB

uump4 24天前 156

帖子完整标题:扑克顽童 Kidpoker.2015.1080p.WEBRip.X264-DEFLATE 5.90GB


悠悠MP4_MP4电影下载_扑克顽童 Kidpoker.2015.1080p.WEBRip.X264-DEFLATE 5.90GB

◎译  名 扑克顽童
◎片  名 KidPoker
◎年  代 2015
◎产  地 英国
◎类  别 纪录片 / 传记 / 运动
◎语  言 英语
◎上映日期 2015-12-01(加拿大)
◎IMDb评分  6.7/10 from 684 users
◎IMDb链接  http://www.imdb.com/title/tt5641138
◎豆瓣评分 0/10 from 0 users
◎豆瓣链接 https://movie.douban.com/subject/26823425/
◎片  长 89分钟
◎导  演 加里·戴维斯 Gary Davis / Francine Watson
◎主  演 Daniel Negreanu
       Mike Negreanu
       Oren Farkash
       Regev Farkash
       Jennifer Harman
       Phil Ivey
       Antonio Esfandiari
       James Hartigan


◎标  签 纪录片 | 德州扑克 | 2015 | 运动 | 真实

◎简  介  

  Daniel Negreanu无疑是当今世界上的顶尖牌手之一。作为扑克之星的明星队员和扑克代言人,Negreanu在其漫长的职业生涯中取得了大多数人无法企及的成就。
  影片将带领观众回到Negreanu的童年时代。在他前往拉斯维加斯参加高额扑克游戏并一鸣惊人之前,Negreanu只是一个混迹于多伦多地下赌场的赌徒。现如今他已拥有六条WSOP金手链,而影片将告诉观众,1998年的他是如何赢得人生的第一条WSOP金手链的,当时他年仅23岁。

Video
ID                                       : 1
Format                                   : AVC
Format/Info                              : Advanced Video Codec
Format profile                           : [email protected]
Format settings                          : CABAC / 4 Ref Frames
Format settings, CABAC                   : Yes
Format settings, Reference frames        : 4 frames
Codec ID                                 : V_MPEG4/ISO/AVC
Duration                                 : 1 h 28 min
Bit rate                                 : 8 941 kb/s
Width                                    : 1 920 pixels
Height                                   : 1 080 pixels
Display aspect ratio                     : 16:9
Frame rate mode                          : Constant
Frame rate                               : 25.000 FPS
Color space                              : YUV
Chroma subsampling                       : 4:2:0
Bit depth                                : 8 bits
Scan type                                : Progressive
Bits/(Pixel*Frame)                       : 0.172
Stream size                              : 5.54 GiB (94%)
Writing library                          : x264 core 148 r2705+3 3f5ed56 / tmod 418b0d4 X86_64
Encoding settings                        : cabac=1 / ref=4 / deblock=1:-3:-3 / analyse=0x3:0x133 / me=umh / subme=11 / psy=1 / fade_compensate=0.00 / psy_rd=1.05:0.00 / mixed_ref=1 / me_range=36 / chroma_me=1 / trellis=2 / 8x8dct=1 / cqm=0 / deadzone=6,6 / fast_pskip=0 / chroma_qp_offset=-2 / threads=12 / lookahead_threads=3 / sliced_threads=0 / nr=0 / decimate=0 / interlaced=0 / bluray_compat=0 / constrained_intra=0 / fgo=0 / bframes=10 / b_pyramid=2 / b_adapt=2 / b_bias=0 / direct=3 / weightb=1 / open_gop=0 / weightp=2 / keyint=250 / keyint_min=25 / scenecut=40 / intra_refresh=0 / rc=crf / mbtree=0 / crf=17.0000 / qcomp=0.80 / qpmin=0:0:0 / qpmax=69:69:69 / qpstep=4 / ip_ratio=1.10 / pb_ratio=1.10 / aq=3:0.85 / aq-sensitivity=10.00 / aq-factor=1.00:1.00:1.00 / aq2=0 / aq3=0
Language                                 : English
Default                                  : Yes
Forced                                   : No

Audio
ID                                       : 2
Format                                   : AC-3
Format/Info                              : Audio Coding 3
Commercial name                          : Dolby Digital
Codec ID                                 : A_AC3
Duration                                 : 1 h 28 min
Bit rate mode                            : Constant
Bit rate                                 : 384 kb/s
Channel(s)                               : 6 channels
Channel layout                           : L R C LFE Ls Rs
Sampling rate                            : 48.0 kHz
Frame rate                               : 31.250 FPS (1536 SPF)
Bit depth                                : 16 bits
Compression mode                         : Lossy
Stream size                              : 244 MiB (4%)
Language                                 : English
Service kind                             : Complete Main
Default                                  : Yes
Forced                                   : No

Text #1
ID                                       : 3
Format                                   : UTF-8
Codec ID                                 : S_TEXT/UTF8
Codec ID/Info                            : UTF-8 Plain Text
Title                                    : English
Language                                 : English
Default                                  : No
Forced                                   : No

Text #2
ID                                       : 4
Format                                   : UTF-8
Codec ID                                 : S_TEXT/UTF8
Codec ID/Info                            : UTF-8 Plain Text
Title                                    : English (SDH)
Language                                 : English
Default                                  : No
Forced                                   : No


悠悠MP4_MP4电影下载_扑克顽童 Kidpoker.2015.1080p.WEBRip.X264-DEFLATE 5.90GB悠悠MP4_MP4电影下载_扑克顽童 Kidpoker.2015.1080p.WEBRip.X264-DEFLATE 5.90GB悠悠MP4_MP4电影下载_扑克顽童 Kidpoker.2015.1080p.WEBRip.X264-DEFLATE 5.90GB


提示:如迅雷下载提示"任务出错"、"因版权无法下载",请尝试【迅雷5】
上传的附件:
最新回复 (0)
返回
本站所有资源均收集自互联网,没有提供影片资源存储, 也未参与录制、上传,若本站收录的资源无意侵犯了您的权益, 请联系邮箱:gogoimgs#gmail.com(#=@)