[2019] [欧美] [恐怖] [WEB-1080P] 地狱屋3 Hell.House.LLC.III.Lake.of.Fire.2019.1080p.AMZN.WEBRip.DDP2.0.x264-NTG 5.38

uump4 24天前 259

帖子完整标题:地狱屋3 Hell.House.LLC.III.Lake.of.Fire.2019.1080p.AMZN.WEBRip.DDP2.0.x264-NTG 5.38GB


悠悠MP4_MP4电影下载_地狱屋3 Hell.House.LLC.III.Lake.of.Fire.2019.1080p.AMZN.WEBRip.DDP2.0.x264-NTG 5.38

◎译  名 地狱屋3
◎片  名 Hell House LLC III: Lake of Fire
◎年  代 2019
◎产  地 美国
◎类  别 恐怖
◎语  言 英语
◎上映日期 2019-09-19(美国)
◎IMDb评分 7.4/10 from 5 users
◎IMDb链接 http://www.imdb.com/title/tt10675136
◎豆瓣评分 0/10 from 0 users
◎豆瓣链接 https://movie.douban.com/subject/34795201/
◎导  演 Stephen Cognetti
◎编  剧 Stephen Cognetti
◎主  演 Gabriel Chytry
      Elizabeth Vermilyea
      Sam Kazzi


◎标  签 美国电影 | 灵异 | 惊悚 | 恐怖 | 伪纪录片 | Horror

◎简  介

  The Abaddon Hotel will once again be open to the public. Russell Wynn has taken his audience-interactive show, Insomnia, into the abandoned hotel that is rumored to be haunted.
Video
ID : 1
Format : AVC
Format/Info : Advanced Video Codec
Format profile : [email protected]
Format settings : CABAC / 4 Ref Frames
Format settings, CABAC : Yes
Format settings, Reference frames : 4 frames
Codec ID : V_MPEG4/ISO/AVC
Duration : 1 h 25 min
Bit rate mode : Constant
Bit rate : 8 762 kb/s
Nominal bit rate : 10 000 kb/s
Width : 1 920 pixels
Height : 1 080 pixels
Display aspect ratio : 16:9
Frame rate mode : Constant
Frame rate : 23.976 (24000/1001) FPS
Color space : YUV
Chroma subsampling : 4:2:0
Bit depth : 8 bits
Scan type : Progressive
Bits/(Pixel*Frame) : 0.176
Stream size : 5.24 GiB (97%)
Default : Yes
Forced : No
Color range : Limited
Color primaries : BT.709
Transfer characteristics : BT.709
Matrix coefficients : BT.709

Audio
ID : 2
Format : E-AC-3
Format/Info : Enhanced AC-3
Commercial name : Dolby Digital Plus
Codec ID : A_EAC3
Duration : 1 h 25 min
Bit rate mode : Constant
Bit rate : 224 kb/s
Channel(s) : 2 channels
Channel layout : L R
Sampling rate : 48.0 kHz
Frame rate : 31.250 FPS (1536 SPF)
Compression mode : Lossy
Stream size : 137 MiB (2%)
Language : English
Service kind : Complete Main
Default : Yes
Forced : No

Text #1
ID : 3
Format : UTF-8
Codec ID : S_TEXT/UTF8
Codec ID/Info : UTF-8 Plain Text
Duration : 1 h 22 min
Bit rate : 81 b/s
Count of elements : 1806
Stream size : 48.9 KiB (0%)
Language : English
Default : No
Forced : No

Text #2
ID : 4
Format : UTF-8
Codec ID : S_TEXT/UTF8
Codec ID/Info : UTF-8 Plain Text
Duration : 1 h 23 min
Bit rate : 92 b/s
Count of elements : 2094
Stream size : 56.6 KiB (0%)
Title : SDH
Language : English
Default : No
Forced : No

悠悠MP4_MP4电影下载_地狱屋3 Hell.House.LLC.III.Lake.of.Fire.2019.1080p.AMZN.WEBRip.DDP2.0.x264-NTG 5.38悠悠MP4_MP4电影下载_地狱屋3 Hell.House.LLC.III.Lake.of.Fire.2019.1080p.AMZN.WEBRip.DDP2.0.x264-NTG 5.38悠悠MP4_MP4电影下载_地狱屋3 Hell.House.LLC.III.Lake.of.Fire.2019.1080p.AMZN.WEBRip.DDP2.0.x264-NTG 5.38


提示:如迅雷下载提示"任务出错"、"因版权无法下载",请尝试【迅雷5】
上传的附件:
最新回复 (0)
返回
本站所有资源均收集自互联网,没有提供影片资源存储, 也未参与录制、上传,若本站收录的资源无意侵犯了您的权益, 请联系邮箱:gogoimgs#gmail.com(#=@)