[2017] [欧美] [喜剧] [WEB-720P] 找死來唬秀 Deadtectives.2018.720p.AMZN.WEBRip.DDP2.0.x264-NTG 2.23GB

uump4 24天前 101

帖子完整标题:找死來唬秀 Deadtectives.2018.720p.AMZN.WEBRip.DDP2.0.x264-NTG 2.23GB


悠悠MP4_MP4电影下载_找死來唬秀 Deadtectives.2018.720p.AMZN.WEBRip.DDP2.0.x264-NTG 2.23GB

◎译  名 找死來唬秀
◎片  名 Deadtectives
◎年  代 2017
◎产  地 美国
◎类  别 喜剧 / 恐怖
◎语  言 英语
◎IMDb评分  6.6/10 from 208 users
◎IMDb链接  http://www.imdb.com/title/tt3503068
◎豆瓣评分 0/10 from 0 users
◎豆瓣链接 https://movie.douban.com/subject/27072828/
◎片  长 92分钟
◎导  演 Tony West
◎编  剧 Tony West / Cris Rice / 大卫·克莱顿·罗杰斯 David Clayton Rogers / Mark Riley
◎主  演 玛莎·希加瑞达 Martha Higareda
       克里斯·吉尔 Chris Geere
       蒂娜·伊维夫 Tina Ivlev


◎标  签 美國 | 2017 | 鬼片單 | 鬼片 | 金馬奇幻影展_2019 | 金馬奇幻10 | 美式恐怖 | 美国

◎简  介  

  別家電視台要的是醜聞加緋聞、裸體加屍體,抓鬼實境秀主持人山姆追求的則是冤魂、邪靈和尖叫 聲,要收視率和腎上腺素一起飆升。
  但說鬼容易捉鬼難,八股的故事以及千篇一律的特效機關,連膽小的觀眾也留不住。為挽救即將被 腰斬的節目,山姆和團隊決定前往墨西哥知名鬼宅展開精采大秀,沒想到鬼宅威力名不虛傳,開腸 破肚的屍體來真的,他們唬爛的捉鬼功力真能派上用場?要活命還是要收視率?
  曾擔任電視節目編劇多年的導演托尼魏斯特,首部劇情長片就拿風靡全美的捉鬼實境節目開刀,精 密器材、攝影鏡頭到古宅怪談應有盡有,卻惡搞造假的特效機關,諷刺為求收視率的不擇手段,出 乎意料的人鬼大戰絕對令人「驚聲尖笑」。

Video
ID                                       : 1
Format                                   : AVC
Format/Info                              : Advanced Video Codec
Format profile                           : [email protected]
Format settings                          : CABAC / 4 Ref Frames
Format settings, CABAC                   : Yes
Format settings, Reference frames        : 4 frames
Codec ID                                 : V_MPEG4/ISO/AVC
Duration                                 : 1 h 32 min
Bit rate mode                            : Constant
Bit rate                                 : 3 240 kb/s
Nominal bit rate                         : 6 000 kb/s
Width                                    : 1 280 pixels
Height                                   : 720 pixels
Display aspect ratio                     : 16:9
Frame rate mode                          : Constant
Frame rate                               : 23.976 (24000/1001) FPS
Color space                              : YUV
Chroma subsampling                       : 4:2:0
Bit depth                                : 8 bits
Scan type                                : Progressive
Bits/(Pixel*Frame)                       : 0.147
Stream size                              : 2.08 GiB (93%)
Default                                  : Yes
Forced                                   : No
Color range                              : Limited
Color primaries                          : BT.709
Transfer characteristics                 : BT.709
Matrix coefficients                      : BT.709

Audio
ID                                       : 2
Format                                   : E-AC-3
Format/Info                              : Enhanced AC-3
Commercial name                          : Dolby Digital Plus
Codec ID                                 : A_EAC3
Duration                                 : 1 h 32 min
Bit rate mode                            : Constant
Bit rate                                 : 224 kb/s
Channel(s)                               : 2 channels
Channel layout                           : L R
Sampling rate                            : 48.0 kHz
Frame rate                               : 31.250 FPS (1536 SPF)
Compression mode                         : Lossy
Stream size                              : 148 MiB (6%)
Language                                 : English
Service kind                             : Complete Main
Default                                  : Yes
Forced                                   : No

Text #1
ID                                       : 3
Format                                   : UTF-8
Codec ID                                 : S_TEXT/UTF8
Codec ID/Info                            : UTF-8 Plain Text
Duration                                 : 1 h 24 min
Bit rate                                 : 55 b/s
Count of elements                        : 1249
Stream size                              : 34.5 KiB (0%)
Language                                 : English
Default                                  : No
Forced                                   : No

Text #2
ID                                       : 4
Format                                   : UTF-8
Codec ID                                 : S_TEXT/UTF8
Codec ID/Info                            : UTF-8 Plain Text
Duration                                 : 1 h 25 min
Bit rate                                 : 60 b/s
Count of elements                        : 1387
Stream size                              : 37.8 KiB (0%)
Title                                    : SDH
Language                                 : English
Default                                  : No
Forced                                   : No


悠悠MP4_MP4电影下载_找死來唬秀 Deadtectives.2018.720p.AMZN.WEBRip.DDP2.0.x264-NTG 2.23GB悠悠MP4_MP4电影下载_找死來唬秀 Deadtectives.2018.720p.AMZN.WEBRip.DDP2.0.x264-NTG 2.23GB悠悠MP4_MP4电影下载_找死來唬秀 Deadtectives.2018.720p.AMZN.WEBRip.DDP2.0.x264-NTG 2.23GB


提示:如迅雷下载提示"任务出错"、"因版权无法下载",请尝试【迅雷5】
上传的附件:
最新回复 (0)
返回
本站所有资源均收集自互联网,没有提供影片资源存储, 也未参与录制、上传,若本站收录的资源无意侵犯了您的权益, 请联系邮箱:gogoimgs#gmail.com(#=@)