[更早] [欧美] [喜剧] [BD-4K] 阿拉丁/阿拉丁历险记 Aladdin.1992.2160p.BluRay.x264.8bit.SDR.DTS-HD.MA.TrueHD.7.1.Atmos-SW

uump4 6天前 93

帖子完整标题:阿拉丁/阿拉丁历险记 Aladdin.1992.2160p.BluRay.x264.8bit.SDR.DTS-HD.MA.TrueHD.7.1.Atmos-SWTYBLZ 20.56GB


悠悠MP4_MP4电影下载_阿拉丁/阿拉丁历险记 Aladdin.1992.2160p.BluRay.x264.8bit.SDR.DTS-HD.MA.TrueHD.7.1.Atmos-SW

◎译  名 阿拉丁 / 阿拉丁历险记
◎片  名 Aladdin
◎年  代 1992
◎产  地 美国
◎类  别 喜剧 / 动画 / 冒险
◎语  言 英语
◎上映日期 1992-11-25(美国)
◎IMDb评分 8.0/10 from 330431 users
◎IMDb链接 http://www.imdb.com/title/tt0103639
◎豆瓣评分 8.1/10 from 50831 users
◎豆瓣链接 https://movie.douban.com/subject/1299513/
◎片  长 90 分钟
◎导  演 罗恩·克莱蒙兹 Ron Clements / 约翰·马斯克 John Musker
◎编  剧 罗恩·克莱蒙兹 Ron Clements / 约翰·马斯克 John Musker / 泰德·艾略特 Ted Elliott / 特里·鲁西奥 Terry Rossio
◎主  演 斯科特·维内尔 Scott Weinger
      罗宾·威廉姆斯 Robin Williams
      琳达·拉金 Linda Larkin
      乔纳森·弗里曼 Jonathan Freeman
      弗兰克·维尔克 Frank Welker
      吉尔伯特·戈特弗雷德 Gilbert Gottfried
      查尔斯·阿德勒 Charles Adler
      杰克·安杰尔 Jack Angel
      科里·伯顿 Corey Burton
      吉姆·库宁斯 Jim Cummings
      詹妮弗·达林 Jennifer Darling
      黛比·戴瑞巴里 Debi Derryberry
      杰里·豪泽 Jerry Houser
      Vera Lockwood
      雪莉·琳恩 Sherry Lynn
      米凯·麦高万 Mickie McGowan
      菲尔·普洛克特 Phil Proctor
      布拉德·凯恩 Brad Kane
      丽娅·萨隆加 Lea Salonga
      哈尔·史密斯 Hal Smith
      Douglas Seale
      Bruce Adler


◎标  签 动画 | 迪斯尼 | 美国 | 阿拉丁 | 动画片 | 1992 | 卡通 | 爱情

◎简  介

  阿拉伯少年阿拉丁不仅拥有忠实的朋友猴子阿布的友谊,还拥有一条神奇的魔法飞毡,他们在闹市中过着无忧无虑的快乐生活。一天,城堡里的公主厌倦了无聊透顶的皇宫生活,决定独自一人偷跑出来见识外面的花花世界。偷跑出来的公主在闹市里遇到了阿拉丁,阿拉丁对她一见钟情。同一时候,邪恶国师企图利用阿拉丁帮助自己找到能实现愿望的神灯,阿拉丁当然不肯束手就擒,于是,他的冒险之旅开始了。

◎获奖情况

  第65届奥斯卡金像奖(1993)
  最佳音效剪辑(提名) 马克·马基尼
  最佳音响(提名) David J. Hudson / Doc Kane / Mel Metcalfe / 特里·波特
  最佳原创配乐 艾伦·曼肯
  最佳原创歌曲 艾伦·曼肯 / 蒂姆·赖斯
  最佳原创歌曲(提名) 艾伦·曼肯 / 霍华德·阿什曼

  第47届英国电影学院奖(1994)
  电影奖 最佳特殊视觉效果(提名) Don Paul / Steve Goldberg
  电影奖 最佳原创音乐(提名) 艾伦·曼肯

  第21届动画安妮奖(1993)
  最佳动画长片
Video
ID : 1
Format : AVC
Format/Info : Advanced Video Codec
Format profile : [email protected]
Format settings : CABAC / 6 Ref Frames
Format settings, CABAC : Yes
Format settings, Reference frames : 6 frames
Codec ID : V_MPEG4/ISO/AVC
Duration : 1 h 30 min
Bit rate : 23.5 Mb/s
Width : 3 584 pixels
Height : 2 160 pixels
Display aspect ratio : 5:3
Frame rate mode : Constant
Frame rate : 23.976 (24000/1001) FPS
Color space : YUV
Chroma subsampling : 4:2:0
Bit depth : 8 bits
Scan type : Progressive
Bits/(Pixel*Frame) : 0.126
Stream size : 14.9 GiB (72%)
Title : Aladdin.1992.2160p.BluRay.x264.8bit.SDR.DTS-HD.MA.TrueHD.7.1.Atmos-SWTYBLZ
Writing library : x264 core 157 r2935 545de2f
Encoding settings : cabac=1 / ref=6 / deblock=1:1:1 / analyse=0x3:0x113 / me=umh / subme=10 / psy=1 / psy_rd=0.40:0.00 / mixed_ref=1 / me_range=48 / chroma_me=1 / trellis=2 / 8x8dct=1 / cqm=0 / deadzone=21,11 / fast_pskip=1 / chroma_qp_offset=-2 / threads=48 / lookahead_threads=5 / sliced_threads=0 / nr=0 / decimate=0 / interlaced=0 / bluray_compat=0 / constrained_intra=0 / bframes=5 / b_pyramid=2 / b_adapt=2 / b_bias=0 / direct=3 / weightb=1 / open_gop=0 / weightp=2 / keyint=250 / keyint_min=23 / scenecut=40 / intra_refresh=0 / rc_lookahead=50 / rc=crf / mbtree=1 / crf=16.0 / qcomp=0.60 / qpmin=0 / qpmax=69 / qpstep=4 / ip_ratio=1.40 / aq=1:0.60
Default : Yes
Forced : No

Audio #1
ID : 2
Format : MLP FBA 16-ch
Format/Info : Meridian Lossless Packing FBA with 16-channel presentation
Commercial name : Dolby TrueHD with Dolby Atmos
Codec ID : A_TRUEHD
Duration : 1 h 30 min
Bit rate mode : Variable
Bit rate : 4 768 kb/s
Maximum bit rate : 6 816 kb/s
Channel(s) : 8 channels
Channel layout : L R C LFE Ls Rs Lb Rb
Sampling rate : 48.0 kHz
Frame rate : 1 200.000 FPS (40 SPF)
Compression mode : Lossless
Stream size : 3.02 GiB (15%)
Title : Aladdin.1992.2160p.BluRay.x264.8bit.SDR.DTS-HD.MA.TrueHD.7.1.Atmos-SWTYBLZ
Language : English
Default : Yes
Forced : No
Number of dynamic objects : 13
Bed channel count : 1 channel
Bed channel configuration : LFE

Audio #2
ID : 3
Format : DTS XLL
Format/Info : Digital Theater Systems
Commercial name : DTS-HD Master Audio
Codec ID : A_DTS
Duration : 1 h 30 min
Bit rate mode : Variable
Bit rate : 3 387 kb/s
Channel(s) : 8 channels
Channel layout : C L R LFE Lb Rb Lss Rss
Sampling rate : 48.0 kHz
Frame rate : 93.750 FPS (512 SPF)
Bit depth : 24 bits
Compression mode : Lossless
Stream size : 2.15 GiB (10%)
Title : Aladdin.1992.2160p.BluRay.x264.8bit.SDR.DTS-HD.MA.TrueHD.7.1.Atmos-SWTYBLZ
Language : English
Default : No
Forced : No

Audio #3
ID : 4
Format : AC-3
Format/Info : Audio Coding 3
Commercial name : Dolby Digital
Codec ID : A_AC3
Duration : 1 h 30 min
Bit rate mode : Constant
Bit rate : 640 kb/s
Channel(s) : 6 channels
Channel layout : L R C LFE Ls Rs
Sampling rate : 48.0 kHz
Frame rate : 31.250 FPS (1536 SPF)
Bit depth : 16 bits
Compression mode : Lossy
Stream size : 415 MiB (2%)
Title : Aladdin.1992.2160p.BluRay.x264.8bit.SDR.DTS-HD.MA.TrueHD.7.1.Atmos-SWTYBLZ
Language : English
Service kind : Complete Main
Default : No
Forced : No

Text #1
ID : 5
Format : UTF-8
Codec ID : S_TEXT/UTF8
Codec ID/Info : UTF-8 Plain Text
Duration : 1 h 25 min
Bit rate : 64 b/s
Count of elements : 1340
Stream size : 40.4 KiB (0%)
Title : English-SRT
Language : English
Default : Yes
Forced : No

Text #2
ID : 6
Format : PGS
Muxing mode : zlib
Codec ID : S_HDMV/PGS
Codec ID/Info : Picture based subtitle format used on BDs/HD-DVDs
Duration : 1 h 25 min
Bit rate : 45.4 kb/s
Count of elements : 2938
Stream size : 27.6 MiB (0%)
Title : English-PGS
Language : English
Default : No
Forced : No

Text #3
ID : 7
Format : PGS
Muxing mode : zlib
Codec ID : S_HDMV/PGS
Codec ID/Info : Picture based subtitle format used on BDs/HD-DVDs
Duration : 1 h 25 min
Bit rate : 35.7 kb/s
Count of elements : 2264
Stream size : 21.7 MiB (0%)
Title : French-PGS
Language : French
Default : No
Forced : No

Text #4
ID : 8
Format : PGS
Muxing mode : zlib
Codec ID : S_HDMV/PGS
Codec ID/Info : Picture based subtitle format used on BDs/HD-DVDs
Duration : 1 h 29 min
Bit rate : 36.0 kb/s
Count of elements : 2360
Stream size : 23.0 MiB (0%)
Title : Spanish-PGS
Language : Spanish
Default : No
Forced : No

Text #5
ID : 9
Format : PGS
Muxing mode : zlib
Codec ID : S_HDMV/PGS
Codec ID/Info : Picture based subtitle format used on BDs/HD-DVDs
Duration : 1 h 29 min
Bit rate : 29.0 kb/s
Count of elements : 2332
Stream size : 18.7 MiB (0%)
Title : Japanese-PGS
Language : Japanese
Default : No
Forced : No

Text #6
ID : 10
Format : PGS
Muxing mode : zlib
Codec ID : S_HDMV/PGS
Codec ID/Info : Picture based subtitle format used on BDs/HD-DVDs
Duration : 1 h 16 min
Bit rate : 67 b/s
Count of elements : 6
Stream size : 37.9 KiB (0%)
Title : French-FORCED-PGS
Language : French
Default : No
Forced : No

Text #7
ID : 11
Format : PGS
Muxing mode : zlib
Codec ID : S_HDMV/PGS
Codec ID/Info : Picture based subtitle format used on BDs/HD-DVDs
Duration : 1 h 16 min
Bit rate : 74 b/s
Count of elements : 6
Stream size : 41.3 KiB (0%)
Title : Spanish-FORCED-PGS
Language : Spanish
Default : No
Forced : No

Text #8
ID : 12
Format : PGS
Muxing mode : zlib
Codec ID : S_HDMV/PGS
Codec ID/Info : Picture based subtitle format used on BDs/HD-DVDs
Duration : 30 min 9 s
Bit rate : 90 b/s
Count of elements : 4
Stream size : 20.0 KiB (0%)
Title : Japanese-FORCED-PGS
Language : Japanese
Default : No
Forced : No

Menu
00:00:00.000 : en:Chapter 01
00:03:06.728 : en:Chapter 02
00:06:47.949 : en:Chapter 03
00:12:37.923 : en:Chapter 04
00:16:35.285 : en:Chapter 05
00:19:39.720 : en:Chapter 06
00:23:51.138 : en:Chapter 07
00:27:39.991 : en:Chapter 08
00:31:22.297 : en:Chapter 09
00:34:56.010 : en:Chapter 10
00:37:20.738 : en:Chapter 11
00:41:14.054 : en:Chapter 12
00:43:33.402 : en:Chapter 13
00:47:17.709 : en:Chapter 14
00:48:40.626 : en:Chapter 15
00:55:20.567 : en:Chapter 16
00:57:38.413 : en:Chapter 17
01:03:05.573 : en:Chapter 18
01:07:25.583 : en:Chapter 19
01:10:08.078 : en:Chapter 20
01:10:42.321 : en:Chapter 21
01:15:32.194 : en:Chapter 22
01:18:58.275 : en:Chapter 23
01:21:41.771 : en:Chapter 24
01:25:44.222 : en:Chapter 25

悠悠MP4_MP4电影下载_阿拉丁/阿拉丁历险记 Aladdin.1992.2160p.BluRay.x264.8bit.SDR.DTS-HD.MA.TrueHD.7.1.Atmos-SW悠悠MP4_MP4电影下载_阿拉丁/阿拉丁历险记 Aladdin.1992.2160p.BluRay.x264.8bit.SDR.DTS-HD.MA.TrueHD.7.1.Atmos-SW悠悠MP4_MP4电影下载_阿拉丁/阿拉丁历险记 Aladdin.1992.2160p.BluRay.x264.8bit.SDR.DTS-HD.MA.TrueHD.7.1.Atmos-SW悠悠MP4_MP4电影下载_阿拉丁/阿拉丁历险记 Aladdin.1992.2160p.BluRay.x264.8bit.SDR.DTS-HD.MA.TrueHD.7.1.Atmos-SW悠悠MP4_MP4电影下载_阿拉丁/阿拉丁历险记 Aladdin.1992.2160p.BluRay.x264.8bit.SDR.DTS-HD.MA.TrueHD.7.1.Atmos-SW悠悠MP4_MP4电影下载_阿拉丁/阿拉丁历险记 Aladdin.1992.2160p.BluRay.x264.8bit.SDR.DTS-HD.MA.TrueHD.7.1.Atmos-SW悠悠MP4_MP4电影下载_阿拉丁/阿拉丁历险记 Aladdin.1992.2160p.BluRay.x264.8bit.SDR.DTS-HD.MA.TrueHD.7.1.Atmos-SW


提示:如迅雷下载提示"任务出错"、"因版权无法下载",请尝试【迅雷5】
上传的附件:
最新回复 (0)
返回
本站所有资源均收集自互联网,没有提供影片资源存储, 也未参与录制、上传,若本站收录的资源无意侵犯了您的权益, 请联系邮箱:gogoimgs#gmail.com(#=@)