[2015] [欧美] [喜剧] [BD-4K] 恐龙当家/善良的恐龙 The.Good.Dinosaur.2015.2160p.BluRay.x265.10bit.SDR.DTS-HD.MA.TrueHD.7

uump4 7天前 35

帖子完整标题:恐龙当家/善良的恐龙 The.Good.Dinosaur.2015.2160p.BluRay.x265.10bit.SDR.DTS-HD.MA.TrueHD.7.1.Atmos-SWTYBLZ 30.05GB


悠悠MP4_MP4电影下载_恐龙当家/善良的恐龙 The.Good.Dinosaur.2015.2160p.BluRay.x265.10bit.SDR.DTS-HD.MA.TrueHD.7

◎译  名 恐龙当家 / 善良的恐龙 / 恐龙大时代(港) / 恐龙管家 / 美好的恐龙世界
◎片  名 The Good Dinosaur
◎年  代 2015
◎产  地 美国
◎类  别 喜剧 / 动画 / 家庭 / 冒险
◎语  言 英语
◎上映日期 2015-11-25(美国)
◎IMDb评分  6.7/10 from 92908 users
◎IMDb链接  http://www.imdb.com/title/tt1979388
◎豆瓣评分 7.3/10 from 36588 users
◎豆瓣链接 https://movie.douban.com/subject/6875863/
◎片  长 93分钟
◎导  演 彼得·孙 Peter Sohn
◎编  剧 鲍勃·彼德森 Bob Peterson / 彼得·孙 Peter Sohn / 埃里克·本森 Erik Benson / 梅格·勒福夫 Meg LeFauve / 凯尔西·曼 Kelsey Mann / 彼得·赫奇斯 Peter Hedges / 阿德里安·莫利纳 Adrian Molina
◎主  演 雷蒙德·奥乔亚 Raymond Ochoa
       杰克·布赖特 Jack Bright
       杰弗里·怀特 Jeffrey Wright
       史蒂夫·茨恩 Steve Zahn
       A·J·巴克利 A.J. Buckley
       安娜·帕奎因 Anna Paquin
       山姆·艾里奥特 Sam Elliott
       弗兰西斯·麦克多蒙德 Frances McDormand
       马库斯·斯克里布纳 Marcus Scribner
       彼得·索恩 Peter Sohn


◎标  签 动画 | 美国 | 皮克斯 | 成长 | 迪士尼 | 冒险 | Pixar | 2015

◎简  介  

  6500万年前,一颗小行星与地球擦肩而过,称霸这个世界的恐龙懵懵懂懂地逃过了灭顶之灾。之后又过了数百万年,恐龙的智力得到进化,它们学会种植、畜牧、建筑,并且拥有属于自己的语言和家庭。某座山脚下的平原地带,雷龙一家迎来三个性格各异的娃娃,最小的阿洛(雷蒙德·奥乔亚 Ray mond Ochoa 配音)孱弱胆怯,与父亲的生离死别更在他的心中投下难以磨灭的阴影。一连串的事件过后,他与妈妈、哥哥、姐姐相隔万里。阿洛将这一切都归罪于原始人类的小孩点点(杰克·布赖特 Jack Bright 配音)。而点点似乎不为所动,他主动亲近阿洛,仿佛是一条忠诚勇敢的小狗。
  在充满坎坷和危险的回家之路上,阿洛与点点结伴而行,而这两个本不该碰面的恐龙和人类,将缔结超越了种族和时空的纯真友情……

◎获奖情况  

  第73届金球奖(2016)
  电影类 最佳动画长片(提名)

  第43届动画安妮奖(2016)
  最佳动画长片(提名)
  最佳配乐(提名)
  最佳分镜(提名)
  最佳艺术指导(提名)
  最佳动画角色(提名)
  最佳角色设计(提名)
  最佳动画效果

  第27届美国制片人工会奖(2016)
  最佳动画片制片人奖(提名)

  第66届美国剪辑工会奖(2016)
  动画片最佳剪辑(提名)

  第14届美国视觉效果协会奖(2016)
  最佳动画电影视觉效果
  最佳动画电影CG动画角色(提名)
  最佳动画电影CG背景
  最佳动画电影模拟动画效果

  第21届美国评论家选择电影奖(2016)
  最佳动画片(提名)

  第19届美国在线影评人协会奖(2015)
  最佳动画片(提名)

  第2届豆瓣电影年度榜单(2015)
  评分最高的动画片(提名)

Video
ID                                       : 1
Format                                   : HEVC
Format/Info                              : High Efficiency Video Coding
Format profile                           : Main [email protected]@High
Codec ID                                 : V_MPEGH/ISO/HEVC
Duration                                 : 1 h 33 min
Bit rate                                 : 35.1 Mb/s
Width                                    : 3 840 pixels
Height                                   : 1 608 pixels
Display aspect ratio                     : 2.40:1
Frame rate mode                          : Constant
Frame rate                               : 23.976 (24000/1001) FPS
Color space                              : YUV
Chroma subsampling                       : 4:2:0
Bit depth                                : 10 bits
Bits/(Pixel*Frame)                       : 0.237
Stream size                              : 23.0 GiB (77%)
Title                                    : The.Good.Dinosaur.2015.2160p.BluRay.x265.10bit.SDR.DTS-HD.MA.TrueHD.7.1.Atmos-SWTYBLZ
Writing library                          : x265 3.0ed72af837053:[Windows][GCC 8.2.0][64 bit] 10bit
Encoding settings                        : cpuid=1111039 / frame-threads=16 / numa-pools=44,44 / wpp / no-pmode / no-pme / no-psnr / no-ssim / log-level=2 / input-csp=1 / input-res=3840x1608 / interlace=0 / total-frames=134715 / level-idc=51 / high-tier=1 / uhd-bd=0 / ref=3 / no-allow-non-conformance / repeat-headers / annexb / aud / hrd / info / hash=0 / no-temporal-layers / no-open-gop / min-keyint=1 / keyint=24 / gop-lookahead=0 / bframes=6 / b-adapt=2 / b-pyramid / bframe-bias=0 / rc-lookahead=25 / lookahead-slices=4 / scenecut=40 / radl=0 / no-splice / no-intra-refresh / ctu=64 / min-cu-size=8 / no-rect / no-amp / max-tu-size=32 / tu-inter-depth=1 / tu-intra-depth=1 / limit-tu=0 / rdoq-level=0 / dynamic-rd=0.00 / no-ssim-rd / signhide / no-tskip / nr-intra=0 / nr-inter=0 / no-constrained-intra / strong-intra-smoothing / max-merge=2 / limit-refs=3 / no-limit-modes / me=1 / subme=2 / merange=57 / temporal-mvp / weightp / no-weightb / no-analyze-src-pics / deblock=1:1 / no-sao / no-sao-non-deblock / rd=3 / no-early-skip / rskip / no-fast-intra / no-tskip-fast / no-cu-lossless / no-b-intra / no-splitrd-skip / rdpenalty=0 / psy-rd=0.40 / psy-rdoq=0.00 / no-rd-refine / no-lossless / cbqpoffs=0 / crqpoffs=0 / rc=crf / crf=16.0 / qcomp=0.60 / qpstep=4 / stats-write=0 / stats-read=0 / vbv-maxrate=160000 / vbv-bufsize=160000 / vbv-init=0.9 / crf-max=0.0 / crf-min=0.0 / ipratio=1.40 / pbratio=1.30 / aq-mode=1 / aq-strength=0.40 / cutree / zone-count=0 / no-strict-cbr / qg-size=32 / no-rc-grain / qpmax=69 / qpmin=0 / no-const-vbv / sar=1 / overscan=0 / videoformat=5 / range=0 / colorprim=2 / transfer=2 / colormatrix=2 / chromaloc=0 / display-window=0 / max-cll=0,0 / min-luma=0 / max-luma=1023 / log2-max-poc-lsb=8 / vui-timing-info / vui-hrd-info / slices=1 / opt-qp-pps / opt-ref-list-length-pps / no-multi-pass-opt-rps / scenecut-bias=0.05 / no-opt-cu-delta-qp / no-aq-motion / no-hdr / no-hdr-opt / no-dhdr10-opt / no-idr-recovery-sei / analysis-reuse-level=5 / scale-factor=0 / refine-intra=0 / refine-inter=0 / refine-mv=0 / refine-ctu-distortion=0 / no-limit-sao / ctu-info=0 / no-lowpass-dct / refine-analysis-type=0 / copy-pic=1 / max-ausize-factor=1.0 / no-dynamic-refine / no-single-sei / no-hevc-aq / qp-adaptation-range=1.00
Default                                  : Yes
Forced                                   : No

Audio #1
ID                                       : 2
Format                                   : MLP FBA 16-ch
Format/Info                              : Meridian Lossless Packing FBA with 16-channel presentation
Commercial name                          : Dolby TrueHD with Dolby Atmos
Codec ID                                 : A_TRUEHD
Duration                                 : 1 h 33 min
Bit rate mode                            : Variable
Bit rate                                 : 6 345 kb/s
Maximum bit rate                         : 8 292 kb/s
Channel(s)                               : 8 channels
Channel layout                           : L R C LFE Ls Rs Lb Rb
Sampling rate                            : 48.0 kHz
Frame rate                               : 1 200.000 FPS (40 SPF)
Compression mode                         : Lossless
Stream size                              : 4.15 GiB (14%)
Title                                    : The.Good.Dinosaur.2015.2160p.BluRay.x265.10bit.SDR.DTS-HD.MA.TrueHD.7.1.Atmos-SWTYBLZ
Language                                 : English
Default                                  : Yes
Forced                                   : No
Number of dynamic objects                : 13
Bed channel count                        : 1 channel
Bed channel configuration                : LFE

Audio #2
ID                                       : 3
Format                                   : DTS XLL
Format/Info                              : Digital Theater Systems
Commercial name                          : DTS-HD Master Audio
Codec ID                                 : A_DTS
Duration                                 : 1 h 33 min
Bit rate mode                            : Variable
Bit rate                                 : 3 642 kb/s
Channel(s)                               : 8 channels
Channel layout                           : C L R LFE Lb Rb Lss Rss
Sampling rate                            : 48.0 kHz
Frame rate                               : 93.750 FPS (512 SPF)
Bit depth                                : 24 bits
Compression mode                         : Lossless
Stream size                              : 2.38 GiB (8%)
Title                                    : The.Good.Dinosaur.2015.2160p.BluRay.x265.10bit.SDR.DTS-HD.MA.TrueHD.7.1.Atmos-SWTYBLZ
Language                                 : English
Default                                  : No
Forced                                   : No

Audio #3
ID                                       : 4
Format                                   : AC-3
Format/Info                              : Audio Coding 3
Commercial name                          : Dolby Digital
Codec ID                                 : A_AC3
Duration                                 : 1 h 33 min
Bit rate mode                            : Constant
Bit rate                                 : 640 kb/s
Channel(s)                               : 6 channels
Channel layout                           : L R C LFE Ls Rs
Sampling rate                            : 48.0 kHz
Frame rate                               : 31.250 FPS (1536 SPF)
Bit depth                                : 16 bits
Compression mode                         : Lossy
Stream size                              : 429 MiB (1%)
Title                                    : The.Good.Dinosaur.2015.2160p.BluRay.x265.10bit.SDR.DTS-HD.MA.TrueHD.7.1.Atmos-SWTYBLZ
Language                                 : English
Service kind                             : Complete Main
Default                                  : No
Forced                                   : No

Text #1
ID                                       : 5
Format                                   : UTF-8
Codec ID                                 : S_TEXT/UTF8
Codec ID/Info                            : UTF-8 Plain Text
Duration                                 : 1 h 21 min
Bit rate                                 : 24 b/s
Count of elements                        : 530
Stream size                              : 14.4 KiB (0%)
Title                                    : English-SRT
Language                                 : English
Default                                  : Yes
Forced                                   : No

Text #2
ID                                       : 6
Format                                   : PGS
Muxing mode                              : zlib
Codec ID                                 : S_HDMV/PGS
Codec ID/Info                            : Picture based subtitle format used on BDs/HD-DVDs
Duration                                 : 1 h 23 min
Bit rate                                 : 22.9 kb/s
Count of elements                        : 1770
Stream size                              : 13.7 MiB (0%)
Title                                    : English-PGS
Language                                 : English
Default                                  : No
Forced                                   : No

Text #3
ID                                       : 7
Format                                   : PGS
Muxing mode                              : zlib
Codec ID                                 : S_HDMV/PGS
Codec ID/Info                            : Picture based subtitle format used on BDs/HD-DVDs
Duration                                 : 1 h 24 min
Bit rate                                 : 14.8 kb/s
Count of elements                        : 960
Stream size                              : 8.90 MiB (0%)
Title                                    : French-PGS
Language                                 : French
Default                                  : No
Forced                                   : No

Text #4
ID                                       : 8
Format                                   : PGS
Muxing mode                              : zlib
Codec ID                                 : S_HDMV/PGS
Codec ID/Info                            : Picture based subtitle format used on BDs/HD-DVDs
Duration                                 : 1 h 24 min
Bit rate                                 : 14.3 kb/s
Count of elements                        : 954
Stream size                              : 8.57 MiB (0%)
Title                                    : Spanish-PGS
Language                                 : Spanish
Default                                  : No
Forced                                   : No

Menu
00:00:00.000                             : en:Chapter 01
00:03:37.926                             : en:Chapter 02
00:06:16.459                             : en:Chapter 03
00:08:14.160                             : en:Chapter 04
00:12:12.606                             : en:Chapter 05
00:14:33.914                             : en:Chapter 06
00:17:42.102                             : en:Chapter 07
00:21:10.644                             : en:Chapter 08
00:22:58.168                             : en:Chapter 09
00:26:41.057                             : en:Chapter 10
00:29:02.615                             : en:Chapter 11
00:33:10.071                             : en:Chapter 12
00:35:28.668                             : en:Chapter 13
00:38:14.417                             : en:Chapter 14
00:41:08.841                             : en:Chapter 15
00:45:42.948                             : en:Chapter 16
00:47:47.948                             : en:Chapter 17
00:51:48.271                             : en:Chapter 18
00:55:46.968                             : en:Chapter 19
01:00:22.952                             : en:Chapter 20
01:03:59.001                             : en:Chapter 21
01:05:27.214                             : en:Chapter 22
01:07:11.777                             : en:Chapter 23
01:11:06.428                             : en:Chapter 24
01:13:43.377                             : en:Chapter 25
01:16:01.306                             : en:Chapter 26
01:19:08.118                             : en:Chapter 27
01:23:56.698                             : en:Chapter 28
01:26:00.780                             : en:Chapter 29


悠悠MP4_MP4电影下载_恐龙当家/善良的恐龙 The.Good.Dinosaur.2015.2160p.BluRay.x265.10bit.SDR.DTS-HD.MA.TrueHD.7悠悠MP4_MP4电影下载_恐龙当家/善良的恐龙 The.Good.Dinosaur.2015.2160p.BluRay.x265.10bit.SDR.DTS-HD.MA.TrueHD.7悠悠MP4_MP4电影下载_恐龙当家/善良的恐龙 The.Good.Dinosaur.2015.2160p.BluRay.x265.10bit.SDR.DTS-HD.MA.TrueHD.7悠悠MP4_MP4电影下载_恐龙当家/善良的恐龙 The.Good.Dinosaur.2015.2160p.BluRay.x265.10bit.SDR.DTS-HD.MA.TrueHD.7悠悠MP4_MP4电影下载_恐龙当家/善良的恐龙 The.Good.Dinosaur.2015.2160p.BluRay.x265.10bit.SDR.DTS-HD.MA.TrueHD.7悠悠MP4_MP4电影下载_恐龙当家/善良的恐龙 The.Good.Dinosaur.2015.2160p.BluRay.x265.10bit.SDR.DTS-HD.MA.TrueHD.7悠悠MP4_MP4电影下载_恐龙当家/善良的恐龙 The.Good.Dinosaur.2015.2160p.BluRay.x265.10bit.SDR.DTS-HD.MA.TrueHD.7


提示:如迅雷下载提示"任务出错"、"因版权无法下载",请尝试【迅雷5】
上传的附件:
最新回复 (0)
返回
本站所有资源均收集自互联网,没有提供影片资源存储, 也未参与录制、上传,若本站收录的资源无意侵犯了您的权益, 请联系邮箱:gogoimgs#gmail.com(#=@)