[更早] [欧美] [剧情] [WEB-1080P] 锡杯/千万风情 Tin.Cup.1996.1080p.WEBRip.x264-RARBG 2.57GB

uump4 10天前 82

帖子完整标题:锡杯/千万风情 Tin.Cup.1996.1080p.WEBRip.x264-RARBG 2.57GB


悠悠MP4_MP4电影下载_锡杯/千万风情 Tin.Cup.1996.1080p.WEBRip.x264-RARBG 2.57GB

◎译  名 锡杯 / 千万风情 / 球爱的天空
◎片  名 Tin Cup
◎年  代 1996
◎产  地 美国
◎类  别 剧情 / 喜剧 / 爱情 / 运动
◎语  言 英语
◎上映日期 1996-10-17
◎IMDb评分  6.3/10 from 43456 users
◎IMDb链接  http://www.imdb.com/title/tt0117918
◎豆瓣评分 7.3/10 from 513 users
◎豆瓣链接 https://movie.douban.com/subject/1296690/
◎片  长 135 分钟
◎导  演 罗恩 谢尔顿 (Ron Shelton)
◎编  剧 约翰 诺维尔诺维尔 (John Norville) / 罗恩 谢尔顿 (Ron Shelton)
◎主  演 凯文·科斯特纳 Kevin Costner
       蕾妮·罗素 Rene Russo
       唐·约翰逊 Don Johnson
       切奇·马林 Cheech Marin


◎标  签 美国 | 爱情 | 体育 | KevinCostner | 喜剧 | 美国电影 | 凯文·科斯特纳 | 1996

◎简  介  

  锡杯是每一个专业高尔夫运动员都渴望得到的最高荣耀,同时亦是罗伊(凯文·科斯特纳 Kevin Costner 饰)的代号,这证明了罗伊曾在界内有着怎样崇高的地位。然而一切都已经是过眼云烟了,在罗伊输掉了一场非常重要的比赛后,心灰意冷的他放弃了拼搏的斗志,返回了德克萨斯州,在那里开了一家高尔夫练习场。
  一晃眼多年过去,罗伊每天都过着得过且过浑浑噩噩的日子,只是内心里仍然时不时的会冒出火花。某天,一个名叫莫莉(蕾妮·罗素 Rene Russo 饰)的女子出现在了罗伊的面前,他们是老相识了。莫莉的出现让罗伊开始考虑重新返回赛场,只是,在日新月异的运动圈里,罗伊还能够重新找到自己的定位吗?

Video
ID                                       : 1
Format                                   : AVC
Format/Info                              : Advanced Video Codec
Format profile                           : [email protected]
Format settings                          : CABAC / 4 Ref Frames
Format settings, CABAC                   : Yes
Format settings, Reference frames        : 4 frames
Codec ID                                 : avc1
Codec ID/Info                            : Advanced Video Coding
Duration                                 : 2 h 14 min
Bit rate                                 : 2 500 kb/s
Width                                    : 1 920 pixels
Height                                   : 1 080 pixels
Display aspect ratio                     : 16:9
Frame rate mode                          : Constant
Frame rate                               : 23.976 (23976/1000) FPS
Color space                              : YUV
Chroma subsampling                       : 4:2:0
Bit depth                                : 8 bits
Scan type                                : Progressive
Bits/(Pixel*Frame)                       : 0.050
Stream size                              : 2.35 GiB (92%)
Writing library                          : x264 core 152 r2851M ba24899
Encoding settings                        : cabac=1 / ref=4 / deblock=1:-1:-1 / analyse=0x3:0x113 / me=umh / subme=9 / psy=1 / psy_rd=1.00:0.15 / mixed_ref=1 / me_range=24 / chroma_me=1 / trellis=2 / 8x8dct=1 / cqm=0 / deadzone=21,11 / fast_pskip=1 / chroma_qp_offset=-3 / threads=16 / lookahead_threads=4 / sliced_threads=0 / nr=0 / decimate=1 / interlaced=0 / bluray_compat=0 / constrained_intra=0 / bframes=3 / b_pyramid=2 / b_adapt=2 / b_bias=0 / direct=3 / weightb=1 / open_gop=0 / weightp=2 / keyint=250 / keyint_min=25 / scenecut=40 / intra_refresh=0 / rc_lookahead=50 / rc=2pass / mbtree=1 / bitrate=2500 / ratetol=1.0 / qcomp=0.60 / qpmin=0 / qpmax=69 / qpstep=4 / cplxblur=20.0 / qblur=0.5 / vbv_maxrate=31250 / vbv_bufsize=31250 / nal_hrd=none / filler=0 / ip_ratio=1.40 / aq=3:1.00
Encoded date                             : UTC 2019-09-11 07:40:39
Tagged date                              : UTC 2019-09-11 07:40:39
Codec configuration box                  : avcC

Audio
ID                                       : 2
Format                                   : AAC LC
Format/Info                              : Advanced Audio Codec Low Complexity
Codec ID                                 : mp4a-40-2
Duration                                 : 2 h 14 min
Bit rate mode                            : Constant
Bit rate                                 : 224 kb/s
Channel(s)                               : 2 channels
Channel layout                           : L R
Sampling rate                            : 48.0 kHz
Frame rate                               : 46.875 FPS (1024 SPF)
Compression mode                         : Lossy
Stream size                              : 216 MiB (8%)
Language                                 : English
Default                                  : Yes
Alternate group                          : 1
Encoded date                             : UTC 2019-09-11 07:40:39
Tagged date                              : UTC 2019-09-11 07:40:39


悠悠MP4_MP4电影下载_锡杯/千万风情 Tin.Cup.1996.1080p.WEBRip.x264-RARBG 2.57GB悠悠MP4_MP4电影下载_锡杯/千万风情 Tin.Cup.1996.1080p.WEBRip.x264-RARBG 2.57GB悠悠MP4_MP4电影下载_锡杯/千万风情 Tin.Cup.1996.1080p.WEBRip.x264-RARBG 2.57GB


提示:如迅雷下载提示"任务出错"、"因版权无法下载",请尝试【迅雷5】
上传的附件:
最新回复 (0)
返回
本站所有资源均收集自互联网,没有提供影片资源存储, 也未参与录制、上传,若本站收录的资源无意侵犯了您的权益, 请联系邮箱:gogoimgs#gmail.com(#=@)