[2018] [欧美] [恐怖] [纯净版] 妖法 Hex.2018.1080p.WEB-DL.DD5.1.H264-FGT 2.96 GIB

uump4 14天前 188

悠悠MP4_MP4电影下载_妖法 Hex.2018.1080p.WEB-DL.DD5.1.H264-FGT 2.96 GIB

◎译  名 妖法
◎片  名 Hex
◎年  代 2018
◎国  家 美国
◎类  别 恐怖
◎语  言 英语
◎IMDb评分 8.5/10 from 1155 users
◎IMDb链接 http://www.imdb.com/title/tt6143782
◎片  长 1 h 25 min
◎导  演 Rudolf Buitendach
◎主  演 罗斯·麦克科尔 Ross McCall
      珍妮·博伊德 Jenny Boyd
      凯利·布拉茨 Kelly Blatz
      阿德里安·霍夫 Adrian Hough
      Philip Philmar
      Sarita Reth
      斯文·索奇塔 Sveng Socheata
      Dara Phang
      Steve Bakken
      Sisowath Siriwudd
      Estefania Villaespesa



◎简  介

  一对儿情侣本打算要度过一个浪漫假期,却不料被一股邪恶力量带入深渊.....


  1. Video

  2. ID : 1

  3. Format : AVC

  4. Format/Info : Advanced Video Codec

  5. Format profile : [email protected]

  6. Format settings : CABAC / 5 Ref Frames

  7. Format settings, CABAC : Yes

  8. Format settings, Reference frames : 5 frames

  9. Codec ID : V_MPEG4/ISO/AVC

  10. Duration : 1 h 25 min

  11. Bit rate : 4 590 kb/s

  12. Width : 1 920 pixels

  13. Height : 796 pixels

  14. Display aspect ratio : 2.40:1

  15. Frame rate mode : Constant

  16. Frame rate : 24.000 FPS

  17. Color space : YUV

  18. Chroma subsampling : 4:2:0

  19. Bit depth : 8 bits

  20. Scan type : Progressive

  21. Bits/(Pixel*Frame) : 0.125

  22. Stream size : 2.73 GiB (92%)

  23. Title : Hex.2018.1080p.WEB-DL.DD5.1.H264-FGT

  24. Language : English

  25. Default : Yes

  26. Forced : No

  27. Color range : Limited

  28. Color primaries : BT.709

  29. Transfer characteristics : BT.709

  30. Matrix coefficients : BT.709


  31. Audio

  32. ID : 2

  33. Format : AC-3

  34. Format/Info : Audio Coding 3

  35. Commercial name : Dolby Digital

  36. Codec ID : A_AC3

  37. Duration : 1 h 25 min

  38. Bit rate mode : Constant

  39. Bit rate : 384 kb/s

  40. Channel(s) : 6 channels

  41. Channel layout : L R C LFE Ls Rs

  42. Sampling rate : 48.0 kHz

  43. Frame rate : 31.250 FPS (1536 SPF)

  44. Bit depth : 16 bits

  45. Compression mode : Lossy

  46. Stream size : 234 MiB (8%)

  47. Title : Hex.2018.1080p.WEB-DL.DD5.1.H264-FGT

  48. Language : English

  49. Service kind : Complete Main

  50. Default : Yes

  51. Forced : No


  52. Text

  53. ID : 3

  54. Format : UTF-8

  55. Codec ID : S_TEXT/UTF8

  56. Codec ID/Info : UTF-8 Plain Text

  57. Duration : 1 h 23 min

  58. Bit rate : 50 b/s

  59. Count of elements : 1038

  60. Stream size : 30.8 KiB (0%)

  61. Language : English

  62. Default : Yes

  63. Forced : No


  64. Menu

  65. 00:00:00.000 : en:1

  66. 00:08:52.000 : en:2

  67. 00:14:07.000 : en:3

  68. 00:19:14.000 : en:4

  69. 00:25:15.000 : en:5

  70. 00:29:00.000 : en:6

  71. 00:36:34.000 : en:7

  72. 00:42:51.000 : en:8

  73. 00:47:35.000 : en:9

  74. 00:54:53.000 : en:10

  75. 00:58:30.000 : en:11

  76. 01:03:08.000 : en:12

  77. 01:08:24.000 : en:13

  78. 01:12:02.000 : en:14

  79. 01:16:45.000 : en:15

  80. 01:20:45.000 : en:16




悠悠MP4_MP4电影下载_妖法 Hex.2018.1080p.WEB-DL.DD5.1.H264-FGT 2.96 GIB

悠悠MP4_MP4电影下载_妖法 Hex.2018.1080p.WEB-DL.DD5.1.H264-FGT 2.96 GIB

悠悠MP4_MP4电影下载_妖法 Hex.2018.1080p.WEB-DL.DD5.1.H264-FGT 2.96 GIB

提示:如迅雷下载提示"任务出错"、"因版权无法下载",请尝试【迅雷5】
上传的附件:
最新回复 (0)
返回
本站所有资源均收集自互联网,没有提供影片资源存储, 也未参与录制、上传,若本站收录的资源无意侵犯了您的权益, 请联系邮箱:gogoimgs#gmail.com(#=@)