[2013] [日本] [剧情] [BD-1080P] 攻壳机动队:崛起2 Ghost.in.the.Shell.Arise.Border.2.Ghost.Whisper.2013.1080p.BluRay.x264

uump4 27天前 278

帖子完整标题:攻壳机动队:崛起2 Ghost.in.the.Shell.Arise.Border.2.Ghost.Whisper.2013.1080p.BluRay.x264-WaLMaRT 3.34GB


悠悠MP4_MP4电影下载_攻壳机动队:崛起2 Ghost.in.the.Shell.Arise.Border.2.Ghost.Whisper.2013.1080p.BluRay.x264

◎译  名 攻壳机动队:崛起2 / Ghost in the Shell Arise: Border 2 - Ghost Whisper / 攻壳机动队:崛起2-灵魂密语
◎片  名 攻殻機動隊ARISE border:2 Ghost Whispers
◎年  代 2013
◎产  地 日本
◎类  别 剧情 / 动作 / 科幻 / 动画 / 犯罪
◎语  言 日语
◎上映日期 2013-11-30(日本)
◎IMDb评分  7.3/10 from 2393 users
◎IMDb链接  http://www.imdb.com/title/tt3017864
◎豆瓣评分 7.3/10 from 2200 users
◎豆瓣链接 https://movie.douban.com/subject/24834226/
◎片  长 56分钟
◎导  演 竹内敦志 Atsushi Takeuchi / 黄瀬和哉 Kazuya Kise
◎编  剧 冲方丁 Tow Ubukata
◎主  演 坂本真绫 Maaya Sakamoto
       塾一久
       松田健一郎 Kenichirou Matsuda
       檀臣幸 Tomoyuki Dan
       中国卓郎 Takuro Nakakuni
       上田燿司
       中井和哉 Kazuya Nakai
       泽城美雪 Miyuki Sawashiro


◎标  签 动画 | 日本 | 攻壳机动队 | 科幻 | 日本动画 | 剧场版 | 2013 | Production.I.G

◎简  介  

  现为公安九课少校的草薙素子(坂本真绫 配音),按照课长荒卷大辅(塾一久 配音)的指示外出调查运输机被神秘并机的事件。结果途中遭到巴特(松田健一郎 配音)率领的武装分子的袭击。与此同时,遍布全国的交通管制系统也意外瘫痪。一切源于前七八联合部队的长官曾我和哉(泽木郁也 配音),他因制造难民虐杀事件遭到国家指控,而他的下属坚信这一切都是国家阴谋。曾我不甘被污,因此试图通过网络揭露大国的丑行。素子在调查过程中渐渐了解真相,而她也朝着组建自己的部队迈出重要的一步……
  本片为攻壳机动队前传“ARISE”的第二部。

Video
ID                                       : 1
Format                                   : AVC
Format/Info                              : Advanced Video Codec
Format profile                           : [email protected]
Format settings, CABAC                   : Yes
Format settings, ReFrames                : 4 frames
Codec ID                                 : V_MPEG4/ISO/AVC
Duration                                 : 56mn 4s
Bit rate                                 : 7 453 Kbps
Width                                    : 1 920 pixels
Height                                   : 1 080 pixels
Display aspect ratio                     : 16:9
Frame rate mode                          : Constant
Frame rate                               : 23.976 fps
Color space                              : YUV
Chroma subsampling                       : 4:2:0
Bit depth                                : 8 bits
Scan type                                : Progressive
Bits/(Pixel*Frame)                       : 0.150
Stream size                              : 2.86 GiB (87%)
Writing library                          : x264 core 142 r2491 24e4fed
Encoding settings                        : cabac=1 / ref=4 / deblock=1:0:0 / analyse=0x3:0x113 / me=umh / subme=8 / psy=1 / psy_rd=1.00:0.00 / mixed_ref=1 / me_range=16 / chroma_me=1 / trellis=1 / 8x8dct=1 / cqm=0 / deadzone=21,11 / fast_pskip=1 / chroma_qp_offset=-2 / threads=12 / lookahead_threads=2 / sliced_threads=0 / nr=0 / decimate=1 / interlaced=0 / bluray_compat=0 / constrained_intra=0 / bframes=3 / b_pyramid=2 / b_adapt=2 / b_bias=0 / direct=3 / weightb=1 / open_gop=0 / weightp=2 / keyint=250 / keyint_min=23 / scenecut=40 / intra_refresh=0 / rc_lookahead=50 / rc=2pass / mbtree=1 / bitrate=7453 / ratetol=1.0 / qcomp=0.60 / qpmin=0 / qpmax=69 / qpstep=4 / cplxblur=20.0 / qblur=0.5 / ip_ratio=1.40 / aq=1:1.00
Default                                  : Yes
Forced                                   : No

Audio #1
ID                                       : 4
Format                                   : AC-3
Format/Info                              : Audio Coding 3
Mode extension                           : CM (complete main)
Format settings, Endianness              : Big
Codec ID                                 : A_AC3
Duration                                 : 56mn 4s
Bit rate mode                            : Constant
Bit rate                                 : 448 Kbps
Channel(s)                               : 6 channels
Channel positions                        : Front: L C R, Side: L R, LFE
Sampling rate                            : 48.0 KHz
Bit depth                                : 16 bits
Compression mode                         : Lossy
Stream size                              : 180 MiB (5%)
Title                                    : Jap
Language                                 : Japanese
Default                                  : Yes
Forced                                   : No

Audio #2
ID                                       : 5
Format                                   : AC-3
Format/Info                              : Audio Coding 3
Mode extension                           : CM (complete main)
Format settings, Endianness              : Big
Codec ID                                 : A_AC3
Duration                                 : 56mn 4s
Bit rate mode                            : Constant
Bit rate                                 : 448 Kbps
Channel(s)                               : 6 channels
Channel positions                        : Front: L C R, Side: L R, LFE
Sampling rate                            : 48.0 KHz
Bit depth                                : 16 bits
Compression mode                         : Lossy
Stream size                              : 180 MiB (5%)
Title                                    : English
Language                                 : English
Default                                  : No
Forced                                   : No

Text #1
ID                                       : 2
Format                                   : UTF-8
Codec ID                                 : S_TEXT/UTF8
Codec ID/Info                            : UTF-8 Plain Text
Title                                    : English Forced
Language                                 : English
Default                                  : No
Forced                                   : No

Text #2
ID                                       : 3
Format                                   : UTF-8
Codec ID                                 : S_TEXT/UTF8
Codec ID/Info                            : UTF-8 Plain Text
Title                                    : Eng
Language                                 : English
Default                                  : Yes
Forced                                   : No


悠悠MP4_MP4电影下载_攻壳机动队:崛起2 Ghost.in.the.Shell.Arise.Border.2.Ghost.Whisper.2013.1080p.BluRay.x264


提示:如迅雷下载提示"任务出错"、"因版权无法下载",请尝试【迅雷5】
上传的附件:
最新回复 (0)
返回
本站所有资源均收集自互联网,没有提供影片资源存储, 也未参与录制、上传,若本站收录的资源无意侵犯了您的权益, 请联系邮箱:gogoimgs#gmail.com(#=@)