[2006] [欧美] [其他] [BD-1080P] 漫游火星 IMAX.Roving.Mars.2006.1080p.BluRay.x264-CLASSiC 3.28GB

uump4 29天前 152

帖子完整标题:漫游火星 IMAX.Roving.Mars.2006.1080p.BluRay.x264-CLASSiC 3.28GB


悠悠MP4_MP4电影下载_漫游火星 IMAX.Roving.Mars.2006.1080p.BluRay.x264-CLASSiC 3.28GB

◎译  名 漫游火星
◎片  名 Roving Mars
◎年  代 2006
◎产  地 美国
◎类  别 纪录片 / 短片
◎语  言 英语
◎上映日期 2006-01-27
◎IMDb评分  7.2/10 from 952 users
◎IMDb链接  http://www.imdb.com/title/tt0436595
◎豆瓣评分 8.3/10 from 689 users
◎豆瓣链接 https://movie.douban.com/subject/2155651/
◎片  长 40 分钟
◎导  演 George Butler
◎主  演 Paul Newman
       Stephen Squyres
       Rob Manning


◎标  签 纪录片 | 美国 | 火星 | 科普 | 科学 | IMAX | 2006 | 美国电影

◎简  介  

  漫游火星(Roving Mars)是由迪斯尼和Sassoon Film Design共同合作推出的作品,内容就是纪录2004年美国太空总署『精神号』(Spirit)以及『机会号』(Opportunity)两辆人造探测车在火星上的种种发现。当初『精神号』和『机会号』是在2004年1月上旬和下旬先后登陆火星,分别在星表面的两端登陆,两辆探测车登陆后立刻在火星的表面展开漫游探勘,并将所发现的图片传回地球。借着这次全球瞩目的火星任务,太空学家希望能揭开火星神秘的面纱,深入探讨火星的奥妙,以及引起众人揣测的火星上生命之谜。

Video
ID                                       : 1
Format                                   : AVC
Format/Info                              : Advanced Video Codec
Format profile                           : [email protected]
Format settings, CABAC                   : Yes
Format settings, ReFrames                : 4 frames
Codec ID                                 : V_MPEG4/ISO/AVC
Duration                                 : 39mn 56s
Bit rate                                 : 11.1 Mbps
Width                                    : 1 920 pixels
Height                                   : 1 080 pixels
Display aspect ratio                     : 16:9
Frame rate mode                          : Constant
Frame rate                               : 23.976 fps
Color space                              : YUV
Chroma subsampling                       : 4:2:0
Bit depth                                : 8 bits
Scan type                                : Progressive
Bits/(Pixel*Frame)                       : 0.224
Stream size                              : 3.04 GiB (93%)
Writing library                          : x264 core 66 r1112 f43e22a
Encoding settings                        : cabac=1 / ref=4 / deblock=1:0:0 / analyse=0x3:0x133 / me=umh / subme=7 / psy_rd=1.0:0.0 / mixed_ref=1 / me_range=16 / chroma_me=1 / trellis=1 / 8x8dct=1 / cqm=0 / deadzone=21,11 / chroma_qp_offset=-2 / threads=6 / nr=0 / decimate=1 / mbaff=0 / bframes=3 / b_pyramid=1 / b_adapt=1 / b_bias=0 / direct=1 / wpredb=1 / keyint=250 / keyint_min=25 / scenecut=40(pre) / rc=2pass / bitrate=11117 / ratetol=1.0 / qcomp=0.60 / qpmin=10 / qpmax=51 / qpstep=4 / cplxblur=20.0 / qblur=0.5 / ip_ratio=1.40 / pb_ratio=1.30 / aq=1:1.00
Language                                 : English
Default                                  : Yes
Forced                                   : No

Audio
ID                                       : 2
Format                                   : AC-3
Format/Info                              : Audio Coding 3
Mode extension                           : CM (complete main)
Format settings, Endianness              : Big
Codec ID                                 : A_AC3
Duration                                 : 39mn 56s
Bit rate mode                            : Constant
Bit rate                                 : 640 Kbps
Channel(s)                               : 6 channels
Channel positions                        : Front: L C R, Side: L R, LFE
Sampling rate                            : 48.0 KHz
Frame rate                               : 31.250 fps (1536 spf)
Compression mode                         : Lossy
Stream size                              : 183 MiB (5%)
Language                                 : English
Default                                  : Yes
Forced                                   : No

Text
ID                                       : 3
Format                                   : UTF-8
Codec ID                                 : S_TEXT/UTF8
Codec ID/Info                            : UTF-8 Plain Text
Language                                 : English
Default                                  : Yes
Forced                                   : No


悠悠MP4_MP4电影下载_漫游火星 IMAX.Roving.Mars.2006.1080p.BluRay.x264-CLASSiC 3.28GB悠悠MP4_MP4电影下载_漫游火星 IMAX.Roving.Mars.2006.1080p.BluRay.x264-CLASSiC 3.28GB悠悠MP4_MP4电影下载_漫游火星 IMAX.Roving.Mars.2006.1080p.BluRay.x264-CLASSiC 3.28GB悠悠MP4_MP4电影下载_漫游火星 IMAX.Roving.Mars.2006.1080p.BluRay.x264-CLASSiC 3.28GB悠悠MP4_MP4电影下载_漫游火星 IMAX.Roving.Mars.2006.1080p.BluRay.x264-CLASSiC 3.28GB悠悠MP4_MP4电影下载_漫游火星 IMAX.Roving.Mars.2006.1080p.BluRay.x264-CLASSiC 3.28GB


提示:如迅雷下载提示"任务出错"、"因版权无法下载",请尝试【迅雷5】
上传的附件:
最新回复 (0)
返回
本站所有资源均收集自互联网,没有提供影片资源存储, 也未参与录制、上传,若本站收录的资源无意侵犯了您的权益, 请联系邮箱:gogoimgs#gmail.com(#=@)