[2012] [欧美] [剧情] [BD-1080P] 爱在圣诞餐桌旁/圣诞爱情 Love.at.the.Christmas.Table.2012.1080p.BluRay.x264-GUACAMOLE 6.56GB

uump4 29天前 87

帖子完整标题:爱在圣诞餐桌旁/圣诞爱情 Love.at.the.Christmas.Table.2012.1080p.BluRay.x264-GUACAMOLE 6.56GB


悠悠MP4_MP4电影下载_爱在圣诞餐桌旁/圣诞爱情 Love.at.the.Christmas.Table.2012.1080p.BluRay.x264-GUACAMOLE 6.56GB

◎译  名 爱在圣诞餐桌旁 / 圣诞爱情
◎片  名 Love at the Christmas Table
◎年  代 2012
◎产  地 美国
◎类  别 剧情 / 爱情
◎语  言 英语
◎上映日期 2012-11-25
◎IMDb评分  6.4/10 from 1893 users
◎IMDb链接  http://www.imdb.com/title/tt2460976
◎豆瓣评分 0/10 from 0 users
◎豆瓣链接 https://movie.douban.com/subject/26272013/
◎片  长 89分钟
◎导  演 Rachel Goldenberg
◎编  剧 Patrick J. Hobby
◎主  演 Danica McKellar
       Dustin Milligan
       Lea Thompson
       Scott Patterson


◎标  签 美国 | 爱就是那么简单 | 佳作

◎简  介  

  Sam和Kat 自小腻在一起,最近常玩耍的地方便是餐桌下面。从四岁到20多岁,他们成为一对几乎成为定数,但是Sam 得到了外出工作的机会,Sam鼓励他出去闯荡,却成为了这段感情的绊脚石。

Video
ID                                       : 1
Format                                   : AVC
Format/Info                              : Advanced Video Codec
Format profile                           : [email protected]
Format settings                          : CABAC / 4 Ref Frames
Format settings, CABAC                   : Yes
Format settings, ReFrames                : 4 frames
Codec ID                                 : V_MPEG4/ISO/AVC
Duration                                 : 1 h 29 min
Bit rate                                 : 9 575 kb/s
Width                                    : 1 920 pixels
Height                                   : 1 080 pixels
Display aspect ratio                     : 16:9
Frame rate mode                          : Constant
Frame rate                               : 23.976 (23976/1000) FPS
Color space                              : YUV
Chroma subsampling                       : 4:2:0
Bit depth                                : 8 bits
Scan type                                : Progressive
Bits/(Pixel*Frame)                       : 0.193
Stream size                              : 5.83 GiB (89%)
Title                                    : Love at the Christmas Table (2012)
Writing library                          : x264 core 142 r2479 dd79a61
Encoding settings                        : cabac=1 / ref=4 / deblock=1:0:0 / analyse=0x3:0x113 / me=umh / subme=7 / psy=1 / psy_rd=1.00:0.00 / mixed_ref=1 / me_range=16 / chroma_me=1 / trellis=1 / 8x8dct=1 / cqm=0 / deadzone=21,11 / fast_pskip=0 / chroma_qp_offset=-2 / threads=12 / lookahead_threads=2 / sliced_threads=0 / nr=0 / decimate=1 / interlaced=0 / bluray_compat=0 / constrained_intra=0 / bframes=3 / b_pyramid=2 / b_adapt=2 / b_bias=0 / direct=3 / weightb=1 / open_gop=0 / weightp=2 / keyint=250 / keyint_min=23 / scenecut=40 / intra_refresh=0 / rc_lookahead=50 / rc=2pass / mbtree=1 / bitrate=9575 / ratetol=1.0 / qcomp=0.60 / qpmin=0 / qpmax=69 / qpstep=4 / cplxblur=20.0 / qblur=0.5 / ip_ratio=1.40 / aq=1:1.00
Default                                  : Yes
Forced                                   : No

Audio
ID                                       : 2
Format                                   : DTS
Format/Info                              : Digital Theater Systems
Codec ID                                 : A_DTS
Duration                                 : 1 h 29 min
Bit rate mode                            : Constant
Bit rate                                 : 960 kb/s
Channel(s)                               : 6 channels
Channel positions                        : Front: L C R, Side: L R, LFE
Sampling rate                            : 48.0 kHz
Frame rate                               : 93.750 FPS (512 SPF)
Bit depth                                : 24 bits
Compression mode                         : Lossy
Stream size                              : 612 MiB (9%)
Title                                    : English
Language                                 : English
Default                                  : Yes
Forced                                   : No


悠悠MP4_MP4电影下载_爱在圣诞餐桌旁/圣诞爱情 Love.at.the.Christmas.Table.2012.1080p.BluRay.x264-GUACAMOLE 6.56GB悠悠MP4_MP4电影下载_爱在圣诞餐桌旁/圣诞爱情 Love.at.the.Christmas.Table.2012.1080p.BluRay.x264-GUACAMOLE 6.56GB悠悠MP4_MP4电影下载_爱在圣诞餐桌旁/圣诞爱情 Love.at.the.Christmas.Table.2012.1080p.BluRay.x264-GUACAMOLE 6.56GB悠悠MP4_MP4电影下载_爱在圣诞餐桌旁/圣诞爱情 Love.at.the.Christmas.Table.2012.1080p.BluRay.x264-GUACAMOLE 6.56GB悠悠MP4_MP4电影下载_爱在圣诞餐桌旁/圣诞爱情 Love.at.the.Christmas.Table.2012.1080p.BluRay.x264-GUACAMOLE 6.56GB悠悠MP4_MP4电影下载_爱在圣诞餐桌旁/圣诞爱情 Love.at.the.Christmas.Table.2012.1080p.BluRay.x264-GUACAMOLE 6.56GB


提示:如迅雷下载提示"任务出错"、"因版权无法下载",请尝试【迅雷5】
上传的附件:
最新回复 (0)
返回
本站所有资源均收集自互联网,没有提供影片资源存储, 也未参与录制、上传,若本站收录的资源无意侵犯了您的权益, 请联系邮箱:gogoimgs#gmail.com(#=@)