[更早] [欧美] [喜剧] [BD-1080P] 警察 Police.1916.1080p.BluRay.x264-GHOULS 2.18GB

uump4 29天前 128

帖子完整标题:警察 Police.1916.1080p.BluRay.x264-GHOULS 2.18GB


悠悠MP4_MP4电影下载_警察 Police.1916.1080p.BluRay.x264-GHOULS 2.18GB

◎译  名 警察
◎片  名 Police
◎年  代 1916
◎产  地 美国
◎类  别 喜剧 / 短片
◎语  言 英语
◎上映日期 1916-05-27
◎IMDb评分 6.5/10 from 1374 users
◎IMDb链接 http://www.imdb.com/title/tt0007194
◎豆瓣评分 7.0/10 from 546 users
◎豆瓣链接 https://movie.douban.com/subject/2133780/
◎片  长 34 分钟
◎导  演 查理·卓别林 Charles Chaplin
◎编  剧 查理·卓别林 Charles Chaplin
◎主  演 查理·卓别林 Charles Chaplin
      艾德娜·珀薇安丝 Edna Purviance
      韦斯利·鲁格尔斯 Wesley Ruggles
      John Rand
      Billy Armstrong


◎标  签 美国 | 卓别林 | 短片 | 默片 | 喜剧 | 查理·卓别林 | CharlesChaplin | 1916

◎简  介

  Charlie is released from prison and immediately swindled by a fake parson. A fellow ex-convict convinces Charlie to help burglarize a house, but Edna, the house's owner, catches them and calls the police. Charlie, however, manages to charm his way out of trouble .... at least for the moment.
Video
ID : 1
Format : AVC
Format/Info : Advanced Video Codec
Format profile : [email protected]
Format settings : CABAC / 5 Ref Frames
Format settings, CABAC : Yes
Format settings, RefFrames : 5 frames
Codec ID : V_MPEG4/ISO/AVC
Duration : 26 min 3 s
Bit rate : 11.4 Mb/s
Width : 1 456 pixels
Height : 1 080 pixels
Display aspect ratio : 4:3
Frame rate mode : Constant
Frame rate : 24.000 FPS
Color space : YUV
Chroma subsampling : 4:2:0
Bit depth : 8 bits
Scan type : Progressive
Bits/(Pixel*Frame) : 0.301
Stream size : 2.02 GiB (93%)
Writing library : x264 core 155 r2901 7d0ff22
Encoding settings : cabac=1 / ref=5 / deblock=1:-3:-3 / analyse=0x3:0x133 / me=umh / subme=8 / psy=1 / psy_rd=1.00:0.00 / mixed_ref=1 / me_range=16 / chroma_me=1 / trellis=1 / 8x8dct=1 / cqm=0 / deadzone=21,11 / fast_pskip=0 / chroma_qp_offset=-2 / threads=24 / lookahead_threads=4 / sliced_threads=0 / nr=0 / decimate=1 / interlaced=0 / bluray_compat=0 / constrained_intra=0 / bframes=3 / b_pyramid=2 / b_adapt=1 / b_bias=0 / direct=3 / weightb=1 / open_gop=0 / weightp=2 / keyint=250 / keyint_min=24 / scenecut=40 / intra_refresh=0 / rc_lookahead=50 / rc=2pass / mbtree=1 / bitrate=11355 / ratetol=1.0 / qcomp=0.60 / qpmin=0 / qpmax=69 / qpstep=4 / cplxblur=20.0 / qblur=0.5 / vbv_maxrate=62500 / vbv_bufsize=78125 / nal_hrd=none / filler=0 / ip_ratio=1.40 / aq=1:1.00
Default : Yes
Forced : No

Audio
ID : 2
Format : AC-3
Format/Info : Audio Coding 3
Format settings, Endianness : Big
Codec ID : A_AC3
Duration : 26 min 3 s
Bit rate mode : Constant
Bit rate : 640 kb/s
Channel(s) : 2 channels
Channel positions : Front: L R
Sampling rate : 48.0 kHz
Frame rate : 31.250 FPS (1536 SPF)
Bit depth : 16 bits
Compression mode : Lossy
Stream size : 119 MiB (5%)
Language : English
Service kind : Complete Main
Default : Yes
Forced : No

Menu
00:00:00.000 : en:00:00:00.000
00:10:15.667 : en:00:10:15.667
00:21:17.417 : en:00:21:17.417

悠悠MP4_MP4电影下载_警察 Police.1916.1080p.BluRay.x264-GHOULS 2.18GB


提示:如迅雷下载提示"任务出错"、"因版权无法下载",请尝试【迅雷5】
上传的附件:
最新回复 (0)
返回
本站所有资源均收集自互联网,没有提供影片资源存储, 也未参与录制、上传,若本站收录的资源无意侵犯了您的权益, 请联系邮箱:gogoimgs#gmail.com(#=@)