[更早] [欧美] [喜剧] [BD-1080P] 七次机会/七个偶然 Seven.Chances.1925.1080p.BluRay.x264-SADPANDA 4.36GB

uump4 29天前 98

帖子完整标题:七次机会/七个偶然 Seven.Chances.1925.1080p.BluRay.x264-SADPANDA 4.36GB


悠悠MP4_MP4电影下载_七次机会/七个偶然 Seven.Chances.1925.1080p.BluRay.x264-SADPANDA 4.36GB

◎译  名 七次机会 / 七个偶然 / 七个机会
◎片  名 Seven Chances
◎年  代 1925
◎产  地 美国
◎类  别 喜剧 / 爱情 / 家庭
◎语  言 英语
◎上映日期 1925-03-11
◎IMDb评分  7.9/10 from 8233 users
◎IMDb链接  http://www.imdb.com/title/tt0016332
◎豆瓣评分 8.8/10 from 4843 users
◎豆瓣链接 https://movie.douban.com/subject/1300352/
◎片  长 56分钟(美国)
◎导  演 Buster Keaton
◎编  剧 Clyde Bruckman / David Belasco / Jean C. Havez / Roi Cooper Megrue
◎主  演 Buster Keaton
       T. Roy Barnes
       Snitz Edwards
       Ruth Dwyer
       Frances Raymond
       Erwin Connelly
       Jules Cowles


◎标  签 默片 | 喜剧 | 美国 | 巴斯特·基顿 | 1925 | 美国电影 | 1920s | BusterKeaton

◎简  介  

  讲述商人吉姆面临经济危机,幸好去世的祖父留下巨额财产给他,但条件是他必须在27岁生日晚上七点前结婚,结果引来全城妇女的求婚,当然,最后还是有情人终成眷属。

Video
ID                                       : 1
Format                                   : AVC
Format/Info                              : Advanced Video Codec
Format profile                           : [email protected]
Format settings                          : CABAC / 5 Ref Frames
Format settings, CABAC                   : Yes
Format settings, RefFrames               : 5 frames
Codec ID                                 : V_MPEG4/ISO/AVC
Duration                                 : 56 min 41 s
Bit rate                                 : 9 511 kb/s
Width                                    : 1 440 pixels
Height                                   : 1 080 pixels
Display aspect ratio                     : 4:3
Frame rate mode                          : Constant
Frame rate                               : 23.976 (24000/1001) FPS
Color space                              : YUV
Chroma subsampling                       : 4:2:0
Bit depth                                : 8 bits
Scan type                                : Progressive
Bits/(Pixel*Frame)                       : 0.255
Stream size                              : 3.77 GiB (86%)
Writing library                          : x264 core 155 r2901 7d0ff22
Encoding settings                        : cabac=1 / ref=5 / deblock=1:-3:-3 / analyse=0x3:0x113 / me=umh / subme=8 / psy=1 / psy_rd=1.00:0.25 / mixed_ref=1 / me_range=24 / chroma_me=1 / trellis=1 / 8x8dct=1 / cqm=0 / deadzone=21,11 / fast_pskip=1 / chroma_qp_offset=-4 / threads=30 / lookahead_threads=5 / sliced_threads=0 / nr=0 / decimate=1 / interlaced=0 / bluray_compat=0 / constrained_intra=0 / bframes=3 / b_pyramid=2 / b_adapt=1 / b_bias=0 / direct=3 / weightb=1 / open_gop=0 / weightp=2 / keyint=240 / keyint_min=24 / scenecut=40 / intra_refresh=0 / rc_lookahead=50 / rc=2pass / mbtree=1 / bitrate=9511 / ratetol=1.0 / qcomp=0.60 / qpmin=0 / qpmax=69 / qpstep=4 / cplxblur=20.0 / qblur=0.5 / ip_ratio=1.40 / aq=1:0.75
Default                                  : Yes
Forced                                   : No

Audio
ID                                       : 2
Format                                   : DTS
Format/Info                              : Digital Theater Systems
Mode                                     : 16
Format settings, Endianness              : Big
Codec ID                                 : A_DTS
Duration                                 : 56 min 41 s
Bit rate mode                            : Constant
Bit rate                                 : 1 509 kb/s
Channel(s)                               : 6 channels
Channel positions                        : Front: L C R, Side: L R, LFE
Sampling rate                            : 48.0 kHz
Frame rate                               : 93.750 FPS (512 SPF)
Bit depth                                : 24 bits
Compression mode                         : Lossy
Stream size                              : 612 MiB (14%)
Language                                 : English
Default                                  : Yes
Forced                                   : No

Menu
00:00:00.000                             : en:00:00:00.000
00:03:15.110                             : en:00:03:15.110
00:09:29.442                             : en:00:09:29.442
00:16:28.320                             : en:00:16:28.320
00:24:05.484                             : en:00:24:05.484
00:28:11.146                             : en:00:28:11.146
00:35:06.646                             : en:00:35:06.646
00:40:08.739                             : en:00:40:08.739
00:47:09.076                             : en:00:47:09.076
00:53:29.414                             : en:00:53:29.414
00:57:01.626                             : en:00:57:01.626


悠悠MP4_MP4电影下载_七次机会/七个偶然 Seven.Chances.1925.1080p.BluRay.x264-SADPANDA 4.36GB


提示:如迅雷下载提示"任务出错"、"因版权无法下载",请尝试【迅雷5】
上传的附件:
最新回复 (0)
返回
本站所有资源均收集自互联网,没有提供影片资源存储, 也未参与录制、上传,若本站收录的资源无意侵犯了您的权益, 请联系邮箱:gogoimgs#gmail.com(#=@)