[2008] [欧美] [喜剧] [BD-1080P] 小叮当 Tinker.Bell.2008.1080p.BluRay.x264-SECTOR7 4.37GB

uump4 29天前 93

帖子完整标题:小叮当 Tinker.Bell.2008.1080p.BluRay.x264-SECTOR7 4.37GB


悠悠MP4_MP4电影下载_小叮当 Tinker.Bell.2008.1080p.BluRay.x264-SECTOR7 4.37GB

◎译  名 小叮当 / The Tinker Bell Movie / Tinker Bell and the Ring of Belief / 奇妙仙子(台) / 廷克·贝尔
◎片  名 Tinker Bell
◎年  代 2008
◎产  地 美国
◎类  别 喜剧 / 动画 / 奇幻 / 冒险
◎语  言 英语
◎上映日期 2008-10-28(美国)
◎IMDb评分  6.8/10 from 10731 users
◎IMDb链接  http://www.imdb.com/title/tt0823671
◎豆瓣评分 7.9/10 from 8333 users
◎豆瓣链接 https://movie.douban.com/subject/1859845/
◎片  长 78分钟
◎导  演 布拉德利·雷蒙德 Bradley Raymond
◎编  剧 杰弗里·M·霍华德 Jeffrey M. Howard / 布拉德利·雷蒙德 Bradley Raymond / J·M·巴利 J.M. Barrie
◎主  演 梅·惠特曼 Mae Whitman
       克里斯汀·肯诺恩斯 Kristin Chenoweth
       雷文-西蒙尼 Raven-Symoné
       刘玉玲 Lucy Liu
       亚美莉卡·费雷拉 America Ferrera
       简·霍洛克斯 Jane Horrocks
       杰西·麦卡尼 Jesse McCartney
       杰夫·贝内特 Jeff Bennett
       罗伯·鲍森 Rob Paulsen
       帕梅拉·阿德龙 Pamela Adlon
       安杰丽卡·休斯顿 Anjelica Huston
       罗琳娜·麦肯尼特 Loreena McKennitt
       史蒂夫·瓦伦丁 Steve Valentine
       凯茜·纳基麦 Kathy Najimy
       理查德·波特诺 Richard Portnow
       盖尔·博尔赫斯 Gail Borges
       亚美莉卡·杨 America Young
       凯特·克雷西达 Kat Cressida
       鲍伯·伯根 Bob Bergen


◎标  签 动画 | 美国 | 迪斯尼 | 小叮当 | 奇幻 | 迪士尼 | 童话 | 2008

◎简  介  

  奇妙的精灵世界里居住着成千上万的小精灵,他们各司其职,装点广阔人间:风仙子为花儿传粉;花仙子为花草上色;水仙子给大地解冻;动物仙子唤醒冬眠的小动物……然而小叮当(梅·惠特曼 Mae Whitman 配音)却只是一名修理仙子,负责制造和修补一些工具,她天天渴望能像姐妹们一样到人间工作,装扮春天。于是,小叮当开始苦练姐妹们的能力,希望改变自己的职能。然而冒冒失失的她虽然学习刻苦,但也闯祸不断,甚至在学习风仙子的技能时不慎破坏了春天的准备进程。懊恼悔恨之时,她却意外发现了自己发明创造的天赋,小叮当决定将功补过,努力发明提高工作速率的工具,让人间的春天及时降临……
  本片为迪士尼公司制作的《奇妙仙子》系列作品中的第一部。

Video
ID                                       : 1
Format                                   : AVC
Format/Info                              : Advanced Video Codec
Format profile                           : [email protected]
Format settings                          : CABAC / 5 Ref Frames
Format settings, CABAC                   : Yes
Format settings, ReFrames                : 5 frames
Codec ID                                 : V_MPEG4/ISO/AVC
Duration                                 : 1 h 18 min
Bit rate                                 : 7 377 kb/s
Width                                    : 1 920 pixels
Height                                   : 1 080 pixels
Display aspect ratio                     : 16:9
Frame rate mode                          : Constant
Frame rate                               : 23.976 FPS
Color space                              : YUV
Chroma subsampling                       : 4:2:0
Bit depth                                : 8 bits
Scan type                                : Progressive
Bits/(Pixel*Frame)                       : 0.148
Stream size                              : 3.94 GiB (90%)
Writing library                          : x264 core 65 r998M 6768543
Encoding settings                        : cabac=1 / ref=5 / deblock=1:-1:-1 / analyse=0x3:0x133 / me=umh / subme=7 / psy_rd=1.0:0.0 / mixed_ref=1 / me_range=16 / chroma_me=1 / trellis=1 / 8x8dct=1 / cqm=1 / deadzone=21,11 / chroma_qp_offset=-2 / threads=8 / nr=0 / decimate=1 / mbaff=0 / bframes=3 / b_pyramid=1 / b_adapt=1 / b_bias=0 / direct=3 / wpredb=1 / keyint=240 / keyint_min=24 / scenecut=40(pre) / rc=2pass / bitrate=7377 / ratetol=1.0 / qcomp=0.60 / qpmin=10 / qpmax=31 / qpstep=4 / cplxblur=20.0 / qblur=0.5 / ip_ratio=1.40 / pb_ratio=1.30 / aq=1:1.00
Language                                 : English
Default                                  : Yes
Forced                                   : No

Audio
ID                                       : 2
Format                                   : AC-3
Format/Info                              : Audio Coding 3
Codec ID                                 : A_AC3
Duration                                 : 1 h 18 min
Bit rate mode                            : Constant
Bit rate                                 : 640 kb/s
Channel(s)                               : 6 channels
Channel positions                        : Front: L C R, Side: L R, LFE
Sampling rate                            : 48.0 kHz
Frame rate                               : 31.250 FPS (1536 SPF)
Bit depth                                : 16 bits
Compression mode                         : Lossy
Stream size                              : 357 MiB (8%)
Service kind                             : Complete Main
Default                                  : Yes
Forced                                   : No


悠悠MP4_MP4电影下载_小叮当 Tinker.Bell.2008.1080p.BluRay.x264-SECTOR7 4.37GB悠悠MP4_MP4电影下载_小叮当 Tinker.Bell.2008.1080p.BluRay.x264-SECTOR7 4.37GB悠悠MP4_MP4电影下载_小叮当 Tinker.Bell.2008.1080p.BluRay.x264-SECTOR7 4.37GB悠悠MP4_MP4电影下载_小叮当 Tinker.Bell.2008.1080p.BluRay.x264-SECTOR7 4.37GB悠悠MP4_MP4电影下载_小叮当 Tinker.Bell.2008.1080p.BluRay.x264-SECTOR7 4.37GB悠悠MP4_MP4电影下载_小叮当 Tinker.Bell.2008.1080p.BluRay.x264-SECTOR7 4.37GB


提示:如迅雷下载提示"任务出错"、"因版权无法下载",请尝试【迅雷5】
上传的附件:
最新回复 (0)
返回
本站所有资源均收集自互联网,没有提供影片资源存储, 也未参与录制、上传,若本站收录的资源无意侵犯了您的权益, 请联系邮箱:gogoimgs#gmail.com(#=@)