[2008] [其他] [动作] [BD-1080P] 杀手十三:阴谋 XIII.The.Conspiracy.The.Movie.2008.1080p.BluRay.x264-RESiSTANCE 10.94GB

uump4 27天前 241

帖子完整标题:杀手十三:阴谋 XIII.The.Conspiracy.The.Movie.2008.1080p.BluRay.x264-RESiSTANCE 10.94GB


悠悠MP4_MP4电影下载_杀手十三:阴谋 XIII.The.Conspiracy.The.Movie.2008.1080p.BluRay.x264-RESiSTANCE 10.94GB

◎译  名 杀手十三:阴谋 / Thirteen: Conspiracy / 杀手13 / 终极刺客
◎片  名 XIII: The Conspiracy
◎年  代 2008
◎产  地 法国 / 加拿大
◎类  别 动作 / 悬疑 / 惊悚 / 犯罪
◎语  言 英语
◎上映日期 2008-10-06
◎IMDb评分  6.7/10 from 6438 users
◎IMDb链接  http://www.imdb.com/title/tt1117667
◎豆瓣评分 6.9/10 from 6458 users
◎豆瓣链接 https://movie.douban.com/subject/3026635/
◎集  数 2
◎片  长 120 分钟 / 90 分钟(DVD version) / Netherlands: 173 分钟(DVD) / USA: 136 分钟
◎导  演 Duane Clark
◎编  剧 Philippe Lyon / William Vance / Jean Van Hamme / David Wolkove
◎主  演 Stephen Dorff


◎标  签 动作 | 悬疑 | 美国 | 特工 | 政治 | 犯罪 | 杀手13 | 美国电影

◎简  介  

  本片改编自比利时的连环漫画册,连环漫画册的灵感来源于同名游戏XIII。
  在"老兵纪念日"上发表讲话的美国历史上首位女总统遇刺身亡后的三个月后,一个浑身是伤、衣衫褴褛的男人(斯蒂芬·多尔夫 Stephen Dorff 饰)出现在某森林里。他没有名字,没有记忆,没有过去,面目全非,似乎从不曾来到过这个世界。唯一的线索,就是身上的纹身“XIII”。XIII得到神秘组织的帮助从监狱里死里逃生,遇到似曾相识的恋人,被神秘组织强迫做交易的同时,被另一伙人追杀。而他们的目的,就是藏在XIII手表里的记忆芯片,一切都扑朔迷离。XIII发现自己被卷入一个惊天阴谋,自己也并非真正的XIII,真正的XIII早在刺杀总统后就被灭口,自己是由时任国家安全局副局长的将军指派的卧底,意在引诱幕后主某的出现......

Video
ID                                       : 1
Format                                   : AVC
Format/Info                              : Advanced Video Codec
Format profile                           : [email protected]
Format settings, CABAC                   : Yes
Format settings, ReFrames                : 4 frames
Codec ID                                 : V_MPEG4/ISO/AVC
Duration                                 : 3h 0mn
Bit rate                                 : 8 051 Kbps
Width                                    : 1 920 pixels
Height                                   : 1 080 pixels
Display aspect ratio                     : 16:9
Frame rate mode                          : Constant
Frame rate                               : 23.976 fps
Color space                              : YUV
Chroma subsampling                       : 4:2:0
Bit depth                                : 8 bits
Scan type                                : Progressive
Bits/(Pixel*Frame)                       : 0.162
Stream size                              : 9.91 GiB (91%)
Writing library                          : x264 core 77 r1292 e381f6d
Encoding settings                        : cabac=1 / ref=4 / deblock=1:0:0 / analyse=0x3:0x133 / me=umh / subme=7 / psy=1 / psy_rd=1.0:0.0 / mixed_ref=1 / me_range=16 / chroma_me=1 / trellis=1 / 8x8dct=1 / cqm=2 / deadzone=21,11 / chroma_qp_offset=-2 / threads=3 / nr=0 / decimate=1 / mbaff=0 / constrained_intra=0 / bframes=3 / b_pyramid=0 / b_adapt=1 / b_bias=0 / direct=1 / wpredb=1 / keyint=250 / keyint_min=25 / scenecut=40 / rc_lookahead=40 / rc=2pass / mbtree=1 / bitrate=8051 / ratetol=1.0 / qcomp=0.60 / qpmin=10 / qpmax=51 / qpstep=4 / cplxblur=20.0 / qblur=0.5 / ip_ratio=1.40 / aq=1:1.00
Language                                 : English
Default                                  : Yes
Forced                                   : No

Audio
ID                                       : 2
Format                                   : AC-3
Format/Info                              : Audio Coding 3
Mode extension                           : CM (complete main)
Format settings, Endianness              : Big
Codec ID                                 : A_AC3
Duration                                 : 3h 0mn
Bit rate mode                            : Constant
Bit rate                                 : 640 Kbps
Channel(s)                               : 6 channels
Channel positions                        : Front: L C R, Side: L R, LFE
Sampling rate                            : 48.0 KHz
Frame rate                               : 31.250 fps (1536 spf)
Compression mode                         : Lossy
Stream size                              : 824 MiB (7%)
Language                                 : English
Default                                  : Yes
Forced                                   : No


悠悠MP4_MP4电影下载_杀手十三:阴谋 XIII.The.Conspiracy.The.Movie.2008.1080p.BluRay.x264-RESiSTANCE 10.94GB悠悠MP4_MP4电影下载_杀手十三:阴谋 XIII.The.Conspiracy.The.Movie.2008.1080p.BluRay.x264-RESiSTANCE 10.94GB悠悠MP4_MP4电影下载_杀手十三:阴谋 XIII.The.Conspiracy.The.Movie.2008.1080p.BluRay.x264-RESiSTANCE 10.94GB悠悠MP4_MP4电影下载_杀手十三:阴谋 XIII.The.Conspiracy.The.Movie.2008.1080p.BluRay.x264-RESiSTANCE 10.94GB悠悠MP4_MP4电影下载_杀手十三:阴谋 XIII.The.Conspiracy.The.Movie.2008.1080p.BluRay.x264-RESiSTANCE 10.94GB悠悠MP4_MP4电影下载_杀手十三:阴谋 XIII.The.Conspiracy.The.Movie.2008.1080p.BluRay.x264-RESiSTANCE 10.94GB


提示:如迅雷下载提示"任务出错"、"因版权无法下载",请尝试【迅雷5】
上传的附件:
最新回复 (0)
返回
本站所有资源均收集自互联网,没有提供影片资源存储, 也未参与录制、上传,若本站收录的资源无意侵犯了您的权益, 请联系邮箱:gogoimgs#gmail.com(#=@)