[2013] [其他] [BD-1080P] 埃及 Egypt.2013.1080p.BluRay.x264-PussyFoot 4.37GB

uump4 29天前 177

帖子完整标题:埃及 Egypt.2013.1080p.BluRay.x264-PussyFoot 4.37GB


悠悠MP4_MP4电影下载_埃及 Egypt.2013.1080p.BluRay.x264-PussyFoot 4.37GB

◎译  名 埃及
◎片  名 egypt 3D
◎年  代 2013
◎产  地 德国
◎IMDb评分 5.5/10 from 106 users
◎IMDb链接 http://www.imdb.com/title/tt2632708
◎豆瓣评分 0/10 from 0 users
◎豆瓣链接 https://movie.douban.com/subject/25713309/
◎导  演 Benjamin Eicher
◎编  剧 Benjamin Eicher

◎标  签 纪录片 | 德国 | 2013

◎简  介

  暂无相关剧情介绍
Video
ID : 1
Format : AVC
Format/Info : Advanced Video Codec
Format profile : [email protected]
Format settings, CABAC : Yes
Format settings, ReFrames : 4 frames
Codec ID : V_MPEG4/ISO/AVC
Duration : 1h 1mn
Bit rate : 9 395 Kbps
Width : 1 920 pixels
Height : 1 080 pixels
Display aspect ratio : 16:9
Frame rate mode : Constant
Frame rate : 24.000 fps
Color space : YUV
Chroma subsampling : 4:2:0
Bit depth : 8 bits
Scan type : Progressive
Bits/(Pixel*Frame) : 0.189
Stream size : 3.95 GiB (90%)
Writing library : x264 core 148 r2705 3f5ed56
Encoding settings : cabac=1 / ref=4 / deblock=1:-2:-2 / analyse=0x3:0x113 / me=umh / subme=8 / psy=1 / psy_rd=1.00:0.00 / mixed_ref=1 / me_range=16 / chroma_me=1 / trellis=1 / 8x8dct=1 / cqm=0 / deadzone=21,11 / fast_pskip=1 / chroma_qp_offset=-2 / threads=12 / lookahead_threads=2 / sliced_threads=0 / nr=0 / decimate=1 / interlaced=0 / bluray_compat=0 / constrained_intra=0 / bframes=3 / b_pyramid=2 / b_adapt=2 / b_bias=0 / direct=3 / weightb=1 / open_gop=0 / weightp=2 / keyint=240 / keyint_min=24 / scenecut=40 / intra_refresh=0 / rc_lookahead=50 / rc=2pass / mbtree=1 / bitrate=9395 / ratetol=1.0 / qcomp=0.60 / qpmin=0 / qpmax=69 / qpstep=4 / cplxblur=20.0 / qblur=0.5 / ip_ratio=1.40 / aq=1:1.00
Language : English
Default : Yes
Forced : No

Audio
ID : 2
Format : DTS
Format/Info : Digital Theater Systems
Mode : 16
Format settings, Endianness : Big
Codec ID : A_DTS
Duration : 1h 1mn
Bit rate mode : Constant
Bit rate : 768 Kbps
Channel(s) : 2 channels
Channel positions : Front: L R
Sampling rate : 48.0 KHz
Frame rate : 93.750 fps (512 spf)
Bit depth : 24 bits
Compression mode : Lossy
Stream size : 338 MiB (8%)
Language : English
Default : Yes
Forced : No

Menu
00:00:00.000 : en:00:00:00.000 / en:00:00:00.000
00:10:00.600 : en:00:10:00.600 / en:00:10:00.600
00:20:01.200 : en:00:20:01.200 / en:00:20:01.200
00:30:01.800 : en:00:30:01.800 / en:00:30:01.800
00:40:02.400 : en:00:40:02.400 / en:00:40:02.400
00:50:03.000 : en:00:50:03.000 / en:00:50:03.000

悠悠MP4_MP4电影下载_埃及 Egypt.2013.1080p.BluRay.x264-PussyFoot 4.37GB悠悠MP4_MP4电影下载_埃及 Egypt.2013.1080p.BluRay.x264-PussyFoot 4.37GB悠悠MP4_MP4电影下载_埃及 Egypt.2013.1080p.BluRay.x264-PussyFoot 4.37GB悠悠MP4_MP4电影下载_埃及 Egypt.2013.1080p.BluRay.x264-PussyFoot 4.37GB悠悠MP4_MP4电影下载_埃及 Egypt.2013.1080p.BluRay.x264-PussyFoot 4.37GB悠悠MP4_MP4电影下载_埃及 Egypt.2013.1080p.BluRay.x264-PussyFoot 4.37GB


提示:如迅雷下载提示"任务出错"、"因版权无法下载",请尝试【迅雷5】
上传的附件:
最新回复 (0)
返回
本站所有资源均收集自互联网,没有提供影片资源存储, 也未参与录制、上传,若本站收录的资源无意侵犯了您的权益, 请联系邮箱:gogoimgs#gmail.com(#=@)