[更早] [其他] [其他] [BD-1080P] 宇宙心/宇航命运 IMAX.Destiny.In.Space.1994.1080p.BluRay.x264-CiNEFiLE 2.65GB

uump4 27天前 125

帖子完整标题:宇宙心/宇航命运 IMAX.Destiny.In.Space.1994.1080p.BluRay.x264-CiNEFiLE 2.65GB


悠悠MP4_MP4电影下载_宇宙心/宇航命运 IMAX.Destiny.In.Space.1994.1080p.BluRay.x264-CiNEFiLE 2.65GB

◎译  名 宇宙心 / 宇航命运
◎片  名 Destiny in Space
◎年  代 1994
◎产  地 加拿大 / 美国
◎类  别 纪录片 / 短片
◎语  言 英语
◎上映日期 1994
◎IMDb评分  7.0/10 from 304 users
◎IMDb链接  http://www.imdb.com/title/tt0109609
◎豆瓣评分 7.6/10 from 246 users
◎豆瓣链接 https://movie.douban.com/subject/3260439/
◎片  长 40 分钟
◎导  演 Ben Burtt / Phyllis Ferguson / James Neihouse / Gail Singer
◎编  剧 Toni Myers
◎主  演 Leonard Nimoy


◎标  签 纪录片 | 科普 | IMAX | 宇宙 | 美国 | 天文 | 美国电影 | Documentary

◎简  介  

  哈勃太空望远镜给了人类一个全新的关于遥远行星的视角,它捕捉到的令人震撼的宇宙图像是以前的人们没法想象的。本片展示了哈勃所拍摄的让人难以置信的太空照片。在本片中,大家可看见其拍摄的清晰的金星和火星照片。同时,还可以观赏到漂浮于太空望远镜上的宇航员用高质量电影胶片所拍摄的壮观太空景色。

Video
ID                                       : 1
Format                                   : AVC
Format/Info                              : Advanced Video Codec
Format profile                           : [email protected]
Format settings, CABAC                   : Yes
Format settings, ReFrames                : 4 frames
Codec ID                                 : V_MPEG4/ISO/AVC
Duration                                 : 39mn 51s
Bit rate                                 : 8 865 Kbps
Width                                    : 1 920 pixels
Height                                   : 1 080 pixels
Display aspect ratio                     : 16:9
Frame rate mode                          : Constant
Frame rate                               : 23.976 fps
Color space                              : YUV
Chroma subsampling                       : 4:2:0
Bit depth                                : 8 bits
Scan type                                : Progressive
Bits/(Pixel*Frame)                       : 0.178
Stream size                              : 2.42 GiB (91%)
Writing library                          : x264 core 65 r999 cc51047
Encoding settings                        : cabac=1 / ref=4 / deblock=1:0:0 / analyse=0x3:0x113 / me=umh / subme=7 / psy_rd=1.0:0.0 / mixed_ref=1 / me_range=16 / chroma_me=1 / trellis=1 / 8x8dct=1 / cqm=0 / deadzone=21,11 / chroma_qp_offset=-2 / threads=6 / nr=0 / decimate=1 / mbaff=0 / bframes=3 / b_pyramid=1 / b_adapt=1 / b_bias=0 / direct=1 / wpredb=1 / keyint=250 / keyint_min=25 / scenecut=40(pre) / rc=2pass / bitrate=8865 / ratetol=1.0 / qcomp=0.60 / qpmin=10 / qpmax=51 / qpstep=4 / cplxblur=20.0 / qblur=0.5 / ip_ratio=1.40 / pb_ratio=1.30 / aq=1:1.00
Language                                 : English
Default                                  : Yes
Forced                                   : No

Audio
ID                                       : 2
Format                                   : AC-3
Format/Info                              : Audio Coding 3
Mode extension                           : CM (complete main)
Format settings, Endianness              : Big
Codec ID                                 : A_AC3
Duration                                 : 39mn 51s
Bit rate mode                            : Constant
Bit rate                                 : 640 Kbps
Channel(s)                               : 6 channels
Channel positions                        : Front: L C R, Side: L R, LFE
Sampling rate                            : 48.0 KHz
Frame rate                               : 31.250 fps (1536 spf)
Compression mode                         : Lossy
Stream size                              : 182 MiB (7%)
Language                                 : English
Default                                  : Yes
Forced                                   : No

Text
ID                                       : 3
Format                                   : UTF-8
Codec ID                                 : S_TEXT/UTF8
Codec ID/Info                            : UTF-8 Plain Text
Language                                 : English
Default                                  : No
Forced                                   : No


悠悠MP4_MP4电影下载_宇宙心/宇航命运 IMAX.Destiny.In.Space.1994.1080p.BluRay.x264-CiNEFiLE 2.65GB悠悠MP4_MP4电影下载_宇宙心/宇航命运 IMAX.Destiny.In.Space.1994.1080p.BluRay.x264-CiNEFiLE 2.65GB悠悠MP4_MP4电影下载_宇宙心/宇航命运 IMAX.Destiny.In.Space.1994.1080p.BluRay.x264-CiNEFiLE 2.65GB悠悠MP4_MP4电影下载_宇宙心/宇航命运 IMAX.Destiny.In.Space.1994.1080p.BluRay.x264-CiNEFiLE 2.65GB悠悠MP4_MP4电影下载_宇宙心/宇航命运 IMAX.Destiny.In.Space.1994.1080p.BluRay.x264-CiNEFiLE 2.65GB悠悠MP4_MP4电影下载_宇宙心/宇航命运 IMAX.Destiny.In.Space.1994.1080p.BluRay.x264-CiNEFiLE 2.65GB


提示:如迅雷下载提示"任务出错"、"因版权无法下载",请尝试【迅雷5】
上传的附件:
最新回复 (0)
返回
本站所有资源均收集自互联网,没有提供影片资源存储, 也未参与录制、上传,若本站收录的资源无意侵犯了您的权益, 请联系邮箱:gogoimgs#gmail.com(#=@)