[2007] [欧美] [剧情] [BD-1080P] 木乃伊之法老的秘密/木乃伊:法老的秘密 IMAX.Mummies.Secrets.Of.The.Pharaohs.2011.1080p.BluRay.x264-

uump4 27天前 180

帖子完整标题:木乃伊之法老的秘密/木乃伊:法老的秘密 IMAX.Mummies.Secrets.Of.The.Pharaohs.2011.1080p.BluRay.x264-MOOVEE 3.28GB


悠悠MP4_MP4电影下载_木乃伊之法老的秘密/木乃伊:法老的秘密 IMAX.Mummies.Secrets.Of.The.Pharaohs.2011.1080p.BluRay.x264-

◎译  名 木乃伊之法老的秘密 / 木乃伊:法老的秘密
◎片  名 Mummies: Secrets of the Pharaohs
◎年  代 2007
◎产  地 美国
◎类  别 剧情 / 纪录片 / 家庭 / 传记
◎语  言 英语
◎上映日期 2007-05-25
◎IMDb评分 6.5/10 from 271 users
◎IMDb链接 http://www.imdb.com/title/tt0922522
◎豆瓣评分 7.1/10 from 273 users
◎豆瓣链接 https://movie.douban.com/subject/3570267/
◎导  演 Keith Melton
◎主  演 Elana Drago
      William Hope
      Nasser Memarzia


◎标  签 纪录片 | 埃及 | 木乃伊之法老的秘密 | 美国 | 历史 | 2007 | 纪录 | IMAX

◎简  介

  The grail is not the gold, nor the books of ancient wisdom, but the 3,000 year old DNA of the mummies, which may lead to a cure for malaria
Video
ID : 1
Format : AVC
Format/Info : Advanced Video Codec
Format profile : [email protected]
Format settings : CABAC / 4 Ref Frames
Format settings, CABAC : Yes
Format settings, Reference frames : 4 frames
Muxing mode : Header stripping
Codec ID : V_MPEG4/ISO/AVC
Duration : 38 min 41 s
Bit rate : 10.6 Mb/s
Width : 1 920 pixels
Height : 1 080 pixels
Display aspect ratio : 16:9
Frame rate mode : Constant
Frame rate : 23.976 (24000/1001) FPS
Color space : YUV
Chroma subsampling : 4:2:0
Bit depth : 8 bits
Scan type : Progressive
Bits/(Pixel*Frame) : 0.214
Stream size : 2.80 GiB (86%)
Writing library : x264 core 125 r2208 d9d2288
Encoding settings : cabac=1 / ref=4 / deblock=1:0:0 / analyse=0x3:0x133 / me=umh / subme=8 / psy=1 / psy_rd=1.00:0.00 / mixed_ref=1 / me_range=16 / chroma_me=1 / trellis=1 / 8x8dct=1 / cqm=0 / deadzone=21,11 / fast_pskip=0 / chroma_qp_offset=-2 / threads=18 / lookahead_threads=3 / sliced_threads=0 / nr=0 / decimate=1 / interlaced=0 / bluray_compat=0 / constrained_intra=0 / bframes=3 / b_pyramid=2 / b_adapt=1 / b_bias=0 / direct=1 / weightb=1 / open_gop=0 / weightp=2 / keyint=250 / keyint_min=23 / scenecut=40 / intra_refresh=0 / rc_lookahead=40 / rc=2pass / mbtree=1 / bitrate=10620 / ratetol=1.0 / qcomp=0.60 / qpmin=0 / qpmax=69 / qpstep=4 / cplxblur=20.0 / qblur=0.5 / ip_ratio=1.40 / aq=1:1.00
Language : English
Default : Yes
Forced : No

Audio
ID : 2
Format : DTS
Format/Info : Digital Theater Systems
Muxing mode : Header stripping
Codec ID : A_DTS
Duration : 38 min 41 s
Bit rate mode : Constant
Bit rate : 1 509 kb/s
Channel(s) : 6 channels
Channel layout : C L R Ls Rs LFE
Sampling rate : 48.0 kHz
Frame rate : 93.750 FPS (512 SPF)
Bit depth : 16 bits
Compression mode : Lossy
Stream size : 418 MiB (12%)
Default : Yes
Forced : No

Menu
00:00:00.000 : en:00:00:00.000
00:02:34.696 : en:00:02:34.696
00:04:25.807 : en:00:04:25.807
00:06:48.533 : en:00:06:48.533
00:10:10.193 : en:00:10:10.193
00:11:47.749 : en:00:11:47.749
00:14:21.277 : en:00:14:21.277
00:15:21.087 : en:00:15:21.087
00:16:51.302 : en:00:16:51.302
00:18:51.464 : en:00:18:51.464
00:21:26.035 : en:00:21:26.035
00:23:05.843 : en:00:23:05.843
00:25:55.137 : en:00:25:55.137
00:27:33.151 : en:00:27:33.151
00:29:18.173 : en:00:29:18.173
00:32:39.040 : en:00:32:39.040
00:34:22.811 : en:00:34:22.811
00:35:01.141 : en:00:35:01.141

悠悠MP4_MP4电影下载_木乃伊之法老的秘密/木乃伊:法老的秘密 IMAX.Mummies.Secrets.Of.The.Pharaohs.2011.1080p.BluRay.x264-悠悠MP4_MP4电影下载_木乃伊之法老的秘密/木乃伊:法老的秘密 IMAX.Mummies.Secrets.Of.The.Pharaohs.2011.1080p.BluRay.x264-悠悠MP4_MP4电影下载_木乃伊之法老的秘密/木乃伊:法老的秘密 IMAX.Mummies.Secrets.Of.The.Pharaohs.2011.1080p.BluRay.x264-


提示:如迅雷下载提示"任务出错"、"因版权无法下载",请尝试【迅雷5】
上传的附件:
最新回复 (0)
返回
本站所有资源均收集自互联网,没有提供影片资源存储, 也未参与录制、上传,若本站收录的资源无意侵犯了您的权益, 请联系邮箱:gogoimgs#gmail.com(#=@)