[2018] [欧美] [剧情] [BD-720P] 都是真的 All.Is.True.2018.720p.BluRay.x264-AAA 4.37GB

uump4 27天前 76

帖子完整标题:都是真的 All.Is.True.2018.720p.BluRay.x264-AAA 4.37GB


悠悠MP4_MP4电影下载_都是真的 All.Is.True.2018.720p.BluRay.x264-AAA 4.37GB

◎译  名 都是真的
◎片  名 All Is True
◎年  代 2018
◎产  地 英国
◎类  别 剧情 / 传记 / 历史
◎语  言 英语
◎上映日期 2018-12-21(美国点映) / 2019-02-08(英国)
◎IMDb评分  5.9/10 from 608 users
◎IMDb链接  http://www.imdb.com/title/tt9206798
◎豆瓣评分 7.4/10 from 116 users
◎豆瓣链接 https://movie.douban.com/subject/30366382/
◎片  长 101分钟
◎导  演 肯尼思·布拉纳 Kenneth Branagh
◎编  剧 本·埃尔顿 Ben Elton
◎主  演 肯尼思·布拉纳 Kenneth Branagh
      洛丽塔·查卡巴蒂 Lolita Chakrabarti
      杰克·科尔格雷夫·赫斯特 Jack Colgrave Hirst
      Doug Colling
      埃莉诺·德·罗汉 Eleanor de Rohan
      朱迪·丹奇 Judi Dench
      菲尔·邓斯特 Phil Dunster
      Freya Durkan
      Flora Easton
      Sam Ellis
      Ian Hearnshaw
      Cassandra Hodges
      Gerard Horan
      Matt Jessup
      伊恩·麦克莱恩 Ian McKellen
      哈利·莱斯特·史密斯 Harry Lister Smith
      凯瑟琳·怀德 Kathryn Wilder
      莉迪亚·威尔逊 Lydia Wilson


◎标  签 英国 | 传记 | 电影 | 剧情 | Shakespeare | 英国电影 | 伊恩·麦克莱恩 | KennethBranagh

◎简  介  

  索尼经典拿下莎士比亚历史剧情片《都是真的》(All Is True)的全球版权,肯尼斯·布拉纳执导并与朱迪·丹奇、伊恩·麦克莱恩主演。该片将于12月21日在纽约和洛杉矶上映一周,确保能参与颁奖季角逐,明年正式上映。
设定在1613年,莎士比亚被公认为是最伟大的作家,但在他著名的环球剧场被夷为平地后,被压垮的莎士比亚回到了斯特拉特福德,他必须面对一个麻烦的过去和一个被忽视的家庭。他唯一的儿子哈姆内特去世,他挣扎着修补与妻子和女儿破碎的关系,被迫审视自己作为丈夫和父亲的失败,他对真相的个人探索揭示了家庭内部的秘密和谎言。

Video
ID                                       : 1
Format                                   : AVC
Format/Info                              : Advanced Video Codec
Format profile                           : [email protected]
Format settings                          : CABAC / 5 Ref Frames
Format settings, CABAC                   : Yes
Format settings, Reference frames        : 5 frames
Codec ID                                 : V_MPEG4/ISO/AVC
Duration                                 : 1 h 40 min
Bit rate                                 : 4 691 kb/s
Width                                    : 1 280 pixels
Height                                   : 536 pixels
Display aspect ratio                     : 2.40:1
Frame rate mode                          : Constant
Frame rate                               : 23.976 (24000/1001) FPS
Color space                              : YUV
Chroma subsampling                       : 4:2:0
Bit depth                                : 8 bits
Scan type                                : Progressive
Bits/(Pixel*Frame)                       : 0.285
Stream size                              : 3.31 GiB (76%)
Title                                    : All.Is.True.2018.720p.BluRay.x264-AAA
Writing library                          : x264 core 157 r2969 d4099dd
Encoding settings                        : cabac=1 / ref=5 / deblock=1:0:0 / analyse=0x3:0x113 / me=umh / subme=8 / psy=1 / psy_rd=1.00:0.00 / mixed_ref=1 / me_range=16 / chroma_me=1 / trellis=1 / 8x8dct=1 / cqm=0 / deadzone=21,11 / fast_pskip=1 / chroma_qp_offset=-2 / threads=16 / lookahead_threads=2 / sliced_threads=0 / nr=0 / decimate=1 / interlaced=0 / bluray_compat=0 / constrained_intra=0 / bframes=3 / b_pyramid=2 / b_adapt=2 / b_bias=0 / direct=3 / weightb=1 / open_gop=0 / weightp=2 / keyint=240 / keyint_min=23 / scenecut=40 / intra_refresh=0 / rc_lookahead=50 / rc=2pass / mbtree=1 / bitrate=4691 / ratetol=1.0 / qcomp=0.60 / qpmin=0 / qpmax=69 / qpstep=4 / cplxblur=20.0 / qblur=0.5 / ip_ratio=1.40 / aq=1:1.00
Language                                 : English
Default                                  : Yes
Forced                                   : No

Audio
ID                                       : 2
Format                                   : DTS
Format/Info                              : Digital Theater Systems
Codec ID                                 : A_DTS
Duration                                 : 1 h 40 min
Bit rate mode                            : Constant
Bit rate                                 : 1 509 kb/s
Channel(s)                               : 6 channels
Channel layout                           : C L R Ls Rs LFE
Sampling rate                            : 48.0 kHz
Frame rate                               : 93.750 FPS (512 SPF)
Bit depth                                : 24 bits
Compression mode                         : Lossy
Stream size                              : 1.06 GiB (24%)
Title                                    : English
Language                                 : English
Default                                  : Yes
Forced                                   : No

Text
ID                                       : 3
Format                                   : UTF-8
Codec ID                                 : S_TEXT/UTF8
Codec ID/Info                            : UTF-8 Plain Text
Duration                                 : 1 h 34 min
Bit rate                                 : 57 b/s
Count of elements                        : 1152
Stream size                              : 39.9 KiB (0%)
Title                                    : English
Language                                 : English
Default                                  : Yes
Forced                                   : No

Menu
00:00:00.000                             : en:00:00:00.000
00:05:59.359                             : en:00:05:59.359
00:12:24.744                             : en:00:12:24.744
00:18:53.215                             : en:00:18:53.215
00:22:30.516                             : en:00:22:30.516
00:29:20.384                             : en:00:29:20.384
00:35:47.354                             : en:00:35:47.354
00:39:06.553                             : en:00:39:06.553
00:49:07.945                             : en:00:49:07.945
00:59:54.007                             : en:00:59:54.007
01:03:35.478                             : en:01:03:35.478
01:09:44.013                             : en:01:09:44.013
01:15:15.136                             : en:01:15:15.136
01:18:54.230                             : en:01:18:54.230
01:25:13.358                             : en:01:25:13.358
01:31:34.322                             : en:01:31:34.322


悠悠MP4_MP4电影下载_都是真的 All.Is.True.2018.720p.BluRay.x264-AAA 4.37GB


提示:如迅雷下载提示"任务出错"、"因版权无法下载",请尝试【迅雷5】
上传的附件:
最新回复 (0)
返回
本站所有资源均收集自互联网,没有提供影片资源存储, 也未参与录制、上传,若本站收录的资源无意侵犯了您的权益, 请联系邮箱:gogoimgs#gmail.com(#=@)