[2008] [欧美] [其他] [BD-1080P] 蒙哥/狐獴家庭 The.Meerkats.2008.1080p.BluRay.x264.DTS-FGT 7.56GB

uump4 29天前 85

帖子完整标题:蒙哥/狐獴家庭 The.Meerkats.2008.1080p.BluRay.x264.DTS-FGT 7.56GB


悠悠MP4_MP4电影下载_蒙哥/狐獴家庭 The.Meerkats.2008.1080p.BluRay.x264.DTS-FGT 7.56GB

◎译  名 蒙哥 / 狐獴家庭 / 猫鼬 / 獴哥
◎片  名 The Meerkats
◎年  代 2008
◎产  地 英国
◎类  别 纪录片
◎语  言 英语
◎上映日期 2008-10-15
◎IMDb评分 7.4/10 from 1418 users
◎IMDb链接 http://www.imdb.com/title/tt0892391
◎豆瓣评分 9.2/10 from 6297 users
◎豆瓣链接 https://movie.douban.com/subject/3012012/
◎片  长 83 分钟
◎导  演 James Honeyborne
◎编  剧 James Honeyborne / Alexander McCall Smith
◎主  演 Paul Newman


◎标  签 动物 | 自然 | BBC | 纪录 | 2008 | 非洲 | 成长 | 温情

◎简  介

  非洲南部喀拉哈里平原,火热的太阳炙烤大地,在这片古老而沧桑的土地上,无数生灵繁衍生息。它们遵循着优胜略汰、弱肉强食的法则,顽强地度过每一天。
  科洛(Carlo),一只猫鼬家族新出世的小成员,它的家族在动物王国里并不强大,猎鹰、毒蛇以及其他大型动物时刻威胁着它们的生命。它们只有通力合作,才能在残酷的世界中生存下来。科洛从最初的懵懂无知,最终成长为家族中不可或缺的重要成员。
  本片荣获2008年东京国际电影节丰田地球奖特别奖。

◎获奖情况

  第21届东京国际电影节(2008)
  地球贡献奖 特别奖 詹姆斯·霍尼伯内
Video
ID : 1
Format : AVC
Format/Info : Advanced Video Codec
Format profile : [email protected]
Format settings : CABAC / 4 Ref Frames
Format settings, CABAC : Yes
Format settings, Reference frames : 4 frames
Codec ID : V_MPEG4/ISO/AVC
Duration : 1 h 23 min
Bit rate : 11.5 Mb/s
Width : 1 920 pixels
Height : 812 pixels
Display aspect ratio : 2.35:1
Frame rate mode : Constant
Frame rate : 23.976 (24000/1001) FPS
Color space : YUV
Chroma subsampling : 4:2:0
Bit depth : 8 bits
Scan type : Progressive
Bits/(Pixel*Frame) : 0.308
Stream size : 6.68 GiB (88%)
Title : The.Meerkats.2008.1080p.BluRay.x264.DTS-FGT
Writing library : x264 core 148 r2748 97eaef2
Encoding settings : cabac=1 / ref=4 / deblock=1:-2:-2 / analyse=0x3:0x113 / me=umh / subme=9 / psy=1 / psy_rd=1.00:0.15 / mixed_ref=1 / me_range=16 / chroma_me=1 / trellis=2 / 8x8dct=1 / cqm=0 / deadzone=21,11 / fast_pskip=1 / chroma_qp_offset=-3 / threads=24 / lookahead_threads=3 / sliced_threads=0 / nr=0 / decimate=1 / interlaced=0 / bluray_compat=0 / constrained_intra=0 / bframes=3 / b_pyramid=2 / b_adapt=1 / b_bias=0 / direct=3 / weightb=1 / open_gop=0 / weightp=2 / keyint=250 / keyint_min=25 / scenecut=40 / intra_refresh=0 / rc_lookahead=50 / rc=2pass / mbtree=1 / bitrate=11500 / ratetol=1.0 / qcomp=0.60 / qpmin=0 / qpmax=69 / qpstep=4 / cplxblur=20.0 / qblur=0.5 / vbv_maxrate=31250 / vbv_bufsize=31250 / nal_hrd=none / filler=0 / ip_ratio=1.40 / aq=1:1.00
Language : English
Default : Yes
Forced : No

Audio
ID : 2
Format : DTS
Format/Info : Digital Theater Systems
Codec ID : A_DTS
Duration : 1 h 23 min
Bit rate mode : Constant
Bit rate : 1 509 kb/s
Channel(s) : 6 channels
Channel layout : C L R Ls Rs LFE
Sampling rate : 48.0 kHz
Frame rate : 93.750 FPS (512 SPF)
Bit depth : 16 bits
Compression mode : Lossy
Stream size : 898 MiB (12%)
Title : The.Meerkats.2008.1080p.BluRay.x264.DTS-FGT
Language : English
Default : Yes
Forced : No

Menu
00:00:00.000 : en:Chapter 1
00:07:05.800 : en:Chapter 2
00:10:00.225 : en:Chapter 3
00:15:47.530 : en:Chapter 4
00:22:26.387 : en:Chapter 5
00:29:57.212 : en:Chapter 6
00:37:16.192 : en:Chapter 7
00:45:36.150 : en:Chapter 8
00:51:37.886 : en:Chapter 9
00:58:59.911 : en:Chapter 10
01:07:05.146 : en:Chapter 11
01:15:33.654 : en:Chapter 12

悠悠MP4_MP4电影下载_蒙哥/狐獴家庭 The.Meerkats.2008.1080p.BluRay.x264.DTS-FGT 7.56GB悠悠MP4_MP4电影下载_蒙哥/狐獴家庭 The.Meerkats.2008.1080p.BluRay.x264.DTS-FGT 7.56GB悠悠MP4_MP4电影下载_蒙哥/狐獴家庭 The.Meerkats.2008.1080p.BluRay.x264.DTS-FGT 7.56GB


提示:如迅雷下载提示"任务出错"、"因版权无法下载",请尝试【迅雷5】
上传的附件:
最新回复 (0)
返回
本站所有资源均收集自互联网,没有提供影片资源存储, 也未参与录制、上传,若本站收录的资源无意侵犯了您的权益, 请联系邮箱:gogoimgs#gmail.com(#=@)