[更早] [欧美] [其他] [BD-1080P] 唱歌的枪 Singing.Guns.1950.1080p.BluRay.x264.DTS-FGT 8.25GB

uump4 29天前 80

帖子完整标题:唱歌的枪 Singing.Guns.1950.1080p.BluRay.x264.DTS-FGT 8.25GB


悠悠MP4_MP4电影下载_唱歌的枪 Singing.Guns.1950.1080p.BluRay.x264.DTS-FGT 8.25GB

◎译  名 唱歌的枪
◎片  名 Singing Guns
◎年  代 1950
◎产  地 美国
◎类  别 西部
◎上映日期 1950-02-28(美国)
◎IMDb评分  6.5/10 from 189 users
◎IMDb链接  http://www.imdb.com/title/tt0042970
◎豆瓣评分 0/10 from 0 users
◎豆瓣链接 https://movie.douban.com/subject/24735684/
◎片  长 91分钟
◎导  演 R.G. Springsteen
◎编  剧 Max Brand / Dorrell McGowan / Stuart E. McGowan
◎主  演 Vaughn Monroe
       埃拉·雷恩斯 Ella Raines
       沃尔特·布伦南 Walter Brennan
       沃德·邦德 Ward Bond
       杰夫·科里 Jeff Corey
       Barry Kelley
       Harry Shannon
       Tom Fadden
       Ralph Dunn
       Rex Lease
       George Chandler
       Billy Gray
       Mary Bear


◎标  签 美国 | 稀缺 | tik | BDMV | 1950

◎简  介  

  暂无相关剧情介绍

◎获奖情况  

  第23届奥斯卡金像奖(1951)
  最佳原创歌曲(提名) Fred Glickman / Johnny Lange / Hy Heath

Video
ID                                       : 1
Format                                   : AVC
Format/Info                              : Advanced Video Codec
Format profile                           : [email protected]
Format settings                          : CABAC / 4 Ref Frames
Format settings, CABAC                   : Yes
Format settings, Reference frames        : 4 frames
Codec ID                                 : V_MPEG4/ISO/AVC
Duration                                 : 1 h 30 min
Bit rate                                 : 11.5 Mb/s
Width                                    : 1 484 pixels
Height                                   : 1 080 pixels
Display aspect ratio                     : 1.374
Frame rate mode                          : Constant
Frame rate                               : 23.976 (24000/1001) FPS
Color space                              : YUV
Chroma subsampling                       : 4:2:0
Bit depth                                : 8 bits
Scan type                                : Progressive
Bits/(Pixel*Frame)                       : 0.299
Stream size                              : 7.29 GiB (88%)
Title                                    : Singing.Guns.1950.1080p.BluRay.x264.DTS-FGT
Writing library                          : x264 core 148 r2748 97eaef2
Encoding settings                        : cabac=1 / ref=4 / deblock=1:-2:-2 / analyse=0x3:0x113 / me=umh / subme=9 / psy=1 / psy_rd=1.00:0.15 / mixed_ref=1 / me_range=16 / chroma_me=1 / trellis=2 / 8x8dct=1 / cqm=0 / deadzone=21,11 / fast_pskip=1 / chroma_qp_offset=-3 / threads=24 / lookahead_threads=3 / sliced_threads=0 / nr=0 / decimate=1 / interlaced=0 / bluray_compat=0 / constrained_intra=0 / bframes=3 / b_pyramid=2 / b_adapt=1 / b_bias=0 / direct=3 / weightb=1 / open_gop=0 / weightp=2 / keyint=250 / keyint_min=25 / scenecut=40 / intra_refresh=0 / rc_lookahead=50 / rc=2pass / mbtree=1 / bitrate=11500 / ratetol=1.0 / qcomp=0.60 / qpmin=0 / qpmax=69 / qpstep=4 / cplxblur=20.0 / qblur=0.5 / vbv_maxrate=31250 / vbv_bufsize=31250 / nal_hrd=none / filler=0 / ip_ratio=1.40 / aq=1:1.00
Language                                 : English
Default                                  : Yes
Forced                                   : No

Audio
ID                                       : 2
Format                                   : DTS
Format/Info                              : Digital Theater Systems
Codec ID                                 : A_DTS
Duration                                 : 1 h 30 min
Bit rate mode                            : Constant
Bit rate                                 : 1 509 kb/s
Channel(s)                               : 2 channels
Channel layout                           : L R
Sampling rate                            : 48.0 kHz
Frame rate                               : 93.750 FPS (512 SPF)
Bit depth                                : 16 bits
Compression mode                         : Lossy
Stream size                              : 980 MiB (12%)
Title                                    : Singing.Guns.1950.1080p.BluRay.x264.DTS-FGT
Language                                 : English
Default                                  : Yes
Forced                                   : No

Menu
00:00:00.000                             : en:Chapter 00
00:09:37.994                             : en:Chapter 01
00:24:09.698                             : en:Chapter 02
00:32:28.154                             : en:Chapter 03
00:40:19.291                             : en:Chapter 04
00:51:40.013                             : en:Chapter 05
01:02:29.370                             : en:Chapter 06
01:14:54.448                             : en:Chapter 07


悠悠MP4_MP4电影下载_唱歌的枪 Singing.Guns.1950.1080p.BluRay.x264.DTS-FGT 8.25GB悠悠MP4_MP4电影下载_唱歌的枪 Singing.Guns.1950.1080p.BluRay.x264.DTS-FGT 8.25GB悠悠MP4_MP4电影下载_唱歌的枪 Singing.Guns.1950.1080p.BluRay.x264.DTS-FGT 8.25GB


提示:如迅雷下载提示"任务出错"、"因版权无法下载",请尝试【迅雷5】
上传的附件:
最新回复 (0)
返回
本站所有资源均收集自互联网,没有提供影片资源存储, 也未参与录制、上传,若本站收录的资源无意侵犯了您的权益, 请联系邮箱:gogoimgs#gmail.com(#=@)