[2018] [其他] [喜剧] [WEB-1080P] 最后一夜 One.Last.Night.2018.1080p.WEB-DL.DD5.1.H264-FGT 2.67GB

uump4 1月前 75

帖子完整标题:最后一夜 One.Last.Night.2018.1080p.WEB-DL.DD5.1.H264-FGT 2.67GB


悠悠MP4_MP4电影下载_最后一夜 One.Last.Night.2018.1080p.WEB-DL.DD5.1.H264-FGT 2.67GB

◎译  名 最后一夜
◎片  名 one last night
◎年  代 2018
◎产  地 美国 / 法国
◎类  别 喜剧 / 爱情
◎语  言 英语
◎上映日期 2019-08-20(美国)
◎IMDb评分 7.4/10 from 21 users
◎IMDb链接 http://www.imdb.com/title/tt5589362
◎豆瓣评分 0/10 from 0 users
◎豆瓣链接 https://movie.douban.com/subject/34445490/
◎导  演 Anthony Sabet
◎编  剧 Anthony Sabet / Matt DeMarco
◎主  演 Rachele Schank
      Brandon Luke Bringhurst
      布莱恩·鲍姆加特纳 Brian Baumgartner


◎简  介

  On their first date, Alex and Zoe venture out to see a movie at a local theater. The film ends and the two become so engaged in a heated discussion that they do not notice the theater closing, leaving them locked inside. Their adventure starts out light and comical as they search for an escape and quickly find themselves falling for one another. Suddenly, a secret is revealed about Alex that abruptly changes Zoe's perception of the night. Perhaps, their escape room experience was not as accidental as she initially thought.
Video
ID : 1
Format : AVC
Format/Info : Advanced Video Codec
Format profile : [email protected]
Format settings : CABAC / 5 Ref Frames
Format settings, CABAC : Yes
Format settings, Reference frames : 5 frames
Codec ID : V_MPEG4/ISO/AVC
Duration : 1 h 16 min
Bit rate : 4 590 kb/s
Width : 1 908 pixels
Height : 804 pixels
Display aspect ratio : 2.40:1
Frame rate mode : Constant
Frame rate : 23.976 (24000/1001) FPS
Color space : YUV
Chroma subsampling : 4:2:0
Bit depth : 8 bits
Scan type : Progressive
Bits/(Pixel*Frame) : 0.125
Stream size : 2.47 GiB (92%)
Title : One.Last.Night.2019.1080p.WEB-DL.DD5.1.H264-FGT
Language : English
Default : Yes
Forced : No
Color range : Limited
Color primaries : BT.709
Transfer characteristics : BT.709
Matrix coefficients : BT.709

Audio
ID : 2
Format : AC-3
Format/Info : Audio Coding 3
Commercial name : Dolby Digital
Codec ID : A_AC3
Duration : 1 h 16 min
Bit rate mode : Constant
Bit rate : 384 kb/s
Channel(s) : 6 channels
Channel layout : L R C LFE Ls Rs
Sampling rate : 48.0 kHz
Frame rate : 31.250 FPS (1536 SPF)
Bit depth : 16 bits
Compression mode : Lossy
Stream size : 211 MiB (8%)
Title : One.Last.Night.2019.1080p.WEB-DL.DD5.1.H264-FGT
Language : English
Service kind : Complete Main
Default : Yes
Forced : No

Text
ID : 3
Format : UTF-8
Codec ID : S_TEXT/UTF8
Codec ID/Info : UTF-8 Plain Text
Duration : 1 h 16 min
Bit rate : 103 b/s
Count of elements : 1810
Stream size : 58.1 KiB (0%)
Language : English
Default : Yes
Forced : No

Menu
00:00:00.000 : en:1
00:01:00.000 : en:2
00:12:34.000 : en:3
00:23:37.000 : en:4
00:33:44.000 : en:5
00:43:09.000 : en:6
00:55:23.000 : en:7
01:05:20.000 : en:8
01:14:04.000 : en:9

悠悠MP4_MP4电影下载_最后一夜 One.Last.Night.2018.1080p.WEB-DL.DD5.1.H264-FGT 2.67GB悠悠MP4_MP4电影下载_最后一夜 One.Last.Night.2018.1080p.WEB-DL.DD5.1.H264-FGT 2.67GB悠悠MP4_MP4电影下载_最后一夜 One.Last.Night.2018.1080p.WEB-DL.DD5.1.H264-FGT 2.67GB


提示:如迅雷下载提示"任务出错"、"因版权无法下载",请尝试【迅雷5】
上传的附件:
最新回复 (0)
返回
本站所有资源均收集自互联网,没有提供影片资源存储, 也未参与录制、上传,若本站收录的资源无意侵犯了您的权益, 请联系邮箱:gogoimgs#gmail.com(#=@)