营地婚礼 Camp.Wedding.2019.1080p.WEB-DL.DD5.1.H264-FGT 3.38GB

uump4 1月前 51

帖子完整标题:营地婚礼 Camp.Wedding.2019.1080p.WEB-DL.DD5.1.H264-FGT 3.38GB


悠悠MP4_MP4电影下载_营地婚礼 Camp.Wedding.2019.1080p.WEB-DL.DD5.1.H264-FGT 3.38GB

◎译  名 营地婚礼
◎片  名 Camp Wedding
◎年  代 2019
◎产  地 美国
◎类  别 喜剧 / 悬疑 / 恐怖
◎语  言 英语
◎上映日期 2019-03-08(Nevermore Film Festival)
◎IMDb评分 7.4/10 from 17 users
◎IMDb链接 http://www.imdb.com/title/tt6354568
◎豆瓣评分 0/10 from 0 users
◎豆瓣链接 https://movie.douban.com/subject/34445670/
◎片  长 97分钟
◎导  演 Greg Emetaz
◎编  剧 Greg Emetaz / Cara Consilvio
◎主  演 Kelley Gates
      Sean Hankinson
      Cadden Jones


◎简  介

  Mia's destination wedding seems doomed when her bridal party is not too keen on doing all the work to transform a dilapidated summer camp into the venue of her dreams--when they begin to be killed off mysteriously, that doesn't help either.
Video
ID : 1
Format : AVC
Format/Info : Advanced Video Codec
Format profile : [email protected]
Format settings : CABAC / 5 Ref Frames
Format settings, CABAC : Yes
Format settings, Reference frames : 5 frames
Codec ID : V_MPEG4/ISO/AVC
Duration : 1 h 37 min
Bit rate : 4 582 kb/s
Width : 1 920 pixels
Height : 810 pixels
Display aspect ratio : 2.40:1
Frame rate mode : Constant
Frame rate : 23.976 (24000/1001) FPS
Color space : YUV
Chroma subsampling : 4:2:0
Bit depth : 8 bits
Scan type : Progressive
Bits/(Pixel*Frame) : 0.123
Stream size : 3.11 GiB (92%)
Title : Camp.Wedding.2019.1080p.WEB-DL.DD5.1.H264-FGT
Language : English
Default : Yes
Forced : No
Color range : Limited
Color primaries : BT.709
Transfer characteristics : BT.709
Matrix coefficients : BT.709

Audio
ID : 2
Format : AC-3
Format/Info : Audio Coding 3
Commercial name : Dolby Digital
Codec ID : A_AC3
Duration : 1 h 37 min
Bit rate mode : Constant
Bit rate : 384 kb/s
Channel(s) : 6 channels
Channel layout : L R C LFE Ls Rs
Sampling rate : 48.0 kHz
Frame rate : 31.250 FPS (1536 SPF)
Bit depth : 16 bits
Compression mode : Lossy
Stream size : 267 MiB (8%)
Title : Camp.Wedding.2019.1080p.WEB-DL.DD5.1.H264-FGT
Language : English
Service kind : Complete Main
Default : Yes
Forced : No

Text
ID : 3
Format : UTF-8
Codec ID : S_TEXT/UTF8
Codec ID/Info : UTF-8 Plain Text
Duration : 1 h 37 min
Bit rate : 107 b/s
Count of elements : 1904
Stream size : 76.7 KiB (0%)
Language : English
Default : Yes
Forced : No

Menu
00:00:00.000 : en:Chapter 1
00:10:33.633 : en:Chapter 2
00:18:45.124 : en:Chapter 3
00:30:02.800 : en:Chapter 4
00:40:09.406 : en:Chapter 5
00:49:31.967 : en:Chapter 6
01:00:10.604 : en:Chapter 7
01:10:32.225 : en:Chapter 8
01:20:11.803 : en:Chapter 9
01:29:15.345 : en:Chapter 10
01:35:42.731 : en:Chapter 11

悠悠MP4_MP4电影下载_营地婚礼 Camp.Wedding.2019.1080p.WEB-DL.DD5.1.H264-FGT 3.38GB悠悠MP4_MP4电影下载_营地婚礼 Camp.Wedding.2019.1080p.WEB-DL.DD5.1.H264-FGT 3.38GB悠悠MP4_MP4电影下载_营地婚礼 Camp.Wedding.2019.1080p.WEB-DL.DD5.1.H264-FGT 3.38GB


提示:如迅雷下载提示"任务出错"、"因版权无法下载",请尝试【迅雷5】
最新回复 (0)
返回
本站所有资源均收集自互联网,没有提供影片资源存储, 也未参与录制、上传,若本站收录的资源无意侵犯了您的权益, 请联系邮箱:gogoimgs#gmail.com(#=@)