萤火虫之恋 The.Firefly.2013.SPANISH.720p.AMZN.WEBRip.DDP2.0.x264-KAMIKAZE 1.94GB

uump4 1月前 68

帖子完整标题:萤火虫之恋 The.Firefly.2013.SPANISH.720p.AMZN.WEBRip.DDP2.0.x264-KAMIKAZE 1.94GB


悠悠MP4_MP4电影下载_萤火虫之恋 The.Firefly.2013.SPANISH.720p.AMZN.WEBRip.DDP2.0.x264-KAMIKAZE 1.94GB

◎译  名 萤火虫之恋 / The Firefly
◎片  名 La Luciérnaga
◎年  代 2013
◎产  地 美国 / 哥伦比亚
◎类  别 剧情 / 爱情 / 奇幻
◎语  言 西班牙语
◎IMDb评分 6.2/10 from 993 users
◎IMDb链接 http://www.imdb.com/title/tt4097826
◎豆瓣评分 6.7/10 from 256 users
◎豆瓣链接 https://movie.douban.com/subject/26740331/
◎片  长 84分钟
◎导  演 Ana Maria Hermida
◎编  剧 Ana Maria Hermida
◎主  演 Carolina Guerra
      Olga Segura


◎标  签 les | 同性 | 爱情 | 哥伦比亚 | 女性 | LGBT | 高颜值 | 电影

◎简  介

  Followig the sudden death of her estranged brother, Lucia finds comfort through her brother's fiancée, Mariana. Though strangers at first, the two women slowly bond over their loss, sharing memories and stories of the man they both loved. Eventually they fall in love and Lucia finds herself at a crossroad. She must chose whether to return to her old life with her husband or embark on a new journey with her new found love.
Video
ID : 1
Format : AVC
Format/Info : Advanced Video Codec
Format profile : [email protected]
Format settings : CABAC / 4 Ref Frames
Format settings, CABAC : Yes
Format settings, Reference frames : 4 frames
Codec ID : V_MPEG4/ISO/AVC
Duration : 1 h 24 min
Bit rate mode : Constant
Bit rate : 3 046 kb/s
Nominal bit rate : 6 000 kb/s
Width : 1 280 pixels
Height : 544 pixels
Display aspect ratio : 2.35:1
Original display aspect ratio : 2.35:1
Frame rate mode : Constant
Frame rate : 23.976 (24000/1001) FPS
Color space : YUV
Chroma subsampling : 4:2:0
Bit depth : 8 bits
Scan type : Progressive
Bits/(Pixel*Frame) : 0.182
Stream size : 1.80 GiB (93%)
Default : Yes
Forced : No
Color range : Limited
Color primaries : BT.709
Transfer characteristics : BT.709
Matrix coefficients : BT.709

Audio
ID : 2
Format : E-AC-3
Format/Info : Enhanced AC-3
Commercial name : Dolby Digital Plus
Codec ID : A_EAC3
Duration : 1 h 24 min
Bit rate mode : Constant
Bit rate : 224 kb/s
Channel(s) : 2 channels
Channel layout : L R
Sampling rate : 48.0 kHz
Frame rate : 31.250 FPS (1536 SPF)
Compression mode : Lossy
Stream size : 136 MiB (7%)
Language : Spanish
Service kind : Complete Main
Default : Yes
Forced : No

Text
ID : 3
Format : UTF-8
Codec ID : S_TEXT/UTF8
Codec ID/Info : UTF-8 Plain Text
Duration : 1 h 23 min
Bit rate : 35 b/s
Count of elements : 825
Stream size : 21.4 KiB (0%)
Title : English [CC](SDH)
Language : English
Default : Yes
Forced : No

悠悠MP4_MP4电影下载_萤火虫之恋 The.Firefly.2013.SPANISH.720p.AMZN.WEBRip.DDP2.0.x264-KAMIKAZE 1.94GB悠悠MP4_MP4电影下载_萤火虫之恋 The.Firefly.2013.SPANISH.720p.AMZN.WEBRip.DDP2.0.x264-KAMIKAZE 1.94GB悠悠MP4_MP4电影下载_萤火虫之恋 The.Firefly.2013.SPANISH.720p.AMZN.WEBRip.DDP2.0.x264-KAMIKAZE 1.94GB


提示:如迅雷下载提示"任务出错"、"因版权无法下载",请尝试【迅雷5】
最新回复 (0)
返回
本站所有资源均收集自互联网,没有提供影片资源存储, 也未参与录制、上传,若本站收录的资源无意侵犯了您的权益, 请联系邮箱:gogoimgs#gmail.com(#=@)