尸地余生2/死者2 The.Dead.2.India.2013.1080p.BluRay.x264-TOPCAT 6.56GB

uump4 1月前 55

帖子完整标题:尸地余生2/死者2 The.Dead.2.India.2013.1080p.BluRay.x264-TOPCAT 6.56GB


悠悠MP4_MP4电影下载_尸地余生2/死者2 The.Dead.2.India.2013.1080p.BluRay.x264-TOPCAT 6.56GB

◎译  名 尸地余生2 / 死者2
◎片  名 The Dead 2
◎年  代 2013
◎产  地 英国
◎类  别 恐怖
◎语  言 英语
◎上映日期 2013-08-22(英国)
◎IMDb评分 5.1/10 from 1684 users
◎IMDb链接 http://www.imdb.com/title/tt2917336
◎豆瓣评分 0/10 from 0 users
◎豆瓣链接 https://movie.douban.com/subject/24845650/
◎片  长 98分钟
◎导  演 Howard J. Ford / Jonathan Ford
◎编  剧 Howard J. Ford / Jonathan Ford
◎主  演 Joseph Millson
      Meenu Mishra
      Anand Gopal
      Sandip Datta Gupta


◎标  签 丧尸 | 电影 | 恐怖 | 印度 | 僵尸 | 血腥 | 灾难 | 恐怖惊悚悬疑重口血腥

◎简  介

  在这部接着恐怖热门片《尸地余生》的续集中,一场极易感染的传染病在印度蔓延。一名美国轮机工程师得知他刚怀孕的女友被困在孟买的平民窟中。现在他必须跨越300多英里遍布丧尸的废土去找到女友。
Video
ID : 1
Format : AVC
Format/Info : Advanced Video Codec
Format profile : [email protected]
Format settings : CABAC / 4 Ref Frames
Format settings, CABAC : Yes
Format settings, ReFrames : 4 frames
Codec ID : V_MPEG4/ISO/AVC
Duration : 1 h 37 min
Bit rate : 8 080 kb/s
Width : 1 920 pixels
Height : 1 040 pixels
Display aspect ratio : 1.85:1
Frame rate mode : Constant
Frame rate : 23.976 (24000/1001) FPS
Color space : YUV
Chroma subsampling : 4:2:0
Bit depth : 8 bits
Scan type : Progressive
Bits/(Pixel*Frame) : 0.169
Stream size : 5.52 GiB (84%)
Writing library : x264 core 142 r2479 dd79a61
Encoding settings : cabac=1 / ref=4 / deblock=1:0:0 / analyse=0x3:0x113 / me=umh / subme=8 / psy=1 / psy_rd=1.00:0.00 / mixed_ref=1 / me_range=16 / chroma_me=1 / trellis=1 / 8x8dct=1 / cqm=0 / deadzone=21,11 / fast_pskip=1 / chroma_qp_offset=-4 / threads=12 / lookahead_threads=2 / sliced_threads=0 / nr=0 / decimate=1 / interlaced=0 / bluray_compat=0 / constrained_intra=0 / bframes=3 / b_pyramid=2 / b_adapt=2 / b_bias=0 / direct=3 / weightb=1 / open_gop=0 / weightp=2 / keyint=240 / keyint_min=22 / scenecut=40 / intra_refresh=0 / rc_lookahead=50 / rc=2pass / mbtree=1 / bitrate=8080 / ratetol=1.0 / qcomp=0.60 / qpmin=0 / qpmax=69 / qpstep=4 / cplxblur=20.0 / qblur=0.5 / vbv_maxrate=62500 / vbv_bufsize=78125 / nal_hrd=none / filler=0 / ip_ratio=1.40 / aq=1:1.00
Default : Yes
Forced : No

Audio
ID : 2
Format : DTS
Format/Info : Digital Theater Systems
Codec ID : A_DTS
Duration : 1 h 37 min
Bit rate mode : Constant
Bit rate : 1 510 kb/s
Channel(s) : 6 channels
Channel layout : C L R Ls Rs LFE
Sampling rate : 48.0 kHz
Frame rate : 93.750 FPS (512 SPF)
Bit depth : 24 bits
Compression mode : Lossy
Stream size : 1.03 GiB (16%)
Language : English
Default : Yes
Forced : No

Menu
00:00:00.000 : en:00:00:00.000
00:03:10.273 : en:00:03:10.273
00:13:23.469 : en:00:13:23.469
00:21:19.236 : en:00:21:19.236
00:30:40.839 : en:00:30:40.839
00:39:53.641 : en:00:39:53.641
00:46:40.214 : en:00:46:40.214
00:54:07.536 : en:00:54:07.536
01:03:19.170 : en:01:03:19.170
01:09:30.625 : en:01:09:30.625
01:22:04.128 : en:01:22:04.128
01:34:47.807 : en:01:34:47.807

悠悠MP4_MP4电影下载_尸地余生2/死者2 The.Dead.2.India.2013.1080p.BluRay.x264-TOPCAT 6.56GB悠悠MP4_MP4电影下载_尸地余生2/死者2 The.Dead.2.India.2013.1080p.BluRay.x264-TOPCAT 6.56GB悠悠MP4_MP4电影下载_尸地余生2/死者2 The.Dead.2.India.2013.1080p.BluRay.x264-TOPCAT 6.56GB


提示:如迅雷下载提示"任务出错"、"因版权无法下载",请尝试【迅雷5】
上传的附件:
最新回复 (0)
返回
本站所有资源均收集自互联网,没有提供影片资源存储, 也未参与录制、上传,若本站收录的资源无意侵犯了您的权益, 请联系邮箱:gogoimgs#gmail.com(#=@)