[2019] [欧美] [喜剧] [BD-720P] 爱宠大机密2/Pet Pet当家2 The.Secret.Life.of.Pets.2.2019.720p.BluRay.x264.DTS-FGT 4.22GB

uump4 1月前 64

帖子完整标题:爱宠大机密2/Pet Pet当家2 The.Secret.Life.of.Pets.2.2019.720p.BluRay.x264.DTS-FGT 4.22GB


悠悠MP4_MP4电影下载_爱宠大机密2/Pet Pet当家2 The.Secret.Life.of.Pets.2.2019.720p.BluRay.x264.DTS-FGT 4.22GB

◎译  名 爱宠大机密2 / Pet Pet当家2(港) / 宠物当家2(台) / 宠物的秘密生活2
◎片  名 The Secret Life of Pets 2
◎年  代 2019
◎产  地 美国
◎类  别 喜剧 / 动画 / 冒险
◎语  言 英语
◎上映日期 2019-06-07(美国) / 2019-07-05(中国大陆)
◎IMDb评分 6.5/10 from 12078 users
◎IMDb链接 http://www.imdb.com/title/tt5113040
◎豆瓣评分 7.2/10 from 35524 users
◎豆瓣链接 https://movie.douban.com/subject/26848167/
◎片  长 86分钟
◎导  演 克里斯·雷纳德 Chris Renaud
◎编  剧 布莱恩·林奇 Brian Lynch
◎主  演 帕顿·奥斯瓦尔特 Patton Oswalt
      凯文·哈特 Kevin Hart
      哈里森·福特 Harrison Ford
      艾瑞克·斯通斯崔特 Eric Stonestreet
      珍妮·斯蕾特 Jenny Slate
      蒂凡尼·哈迪斯 Tiffany Haddish
      蕾克·贝尔 Lake Bell
      达纳·卡维 Dana Carvey
      鲍比·莫尼汉 Bobby Moynihan
      汉尼拔·布勒斯 Hannibal Buress
      克里斯·雷纳德 Chris Renaud
      艾丽·坎伯尔 Ellie Kemper
      皮特·霍尔姆斯 Pete Holmes
      尼克·克罗尔 Nick Kroll
      肖恩·吉布朗尼 Sean Giambrone
      梅雷迪斯·萨拉格尔 Meredith Salenger
      迈克尔·贝亚蒂 Michael Beattie
      大卫·阿克德 David Acord
      斯科特·摩西尔 Scott Mosier
      杰米·卡米尔 Jaime Camil
      拉瑞恩·纽曼 Laraine Newman
      布莱恩·T·德莱尼 Brian T. Delaney
      杰西卡·迪西可 Jessica Di Cicco
      桑德拉·艾切维里亚 Sandra Echeverría
      加斯·詹宁斯 Garth Jennings
      塔拉·斯特朗 Tara Strong
      弗雷德·塔特西奥 Fred Tatasciore
      约翰·卡西尔 John Kassir
      斯科特·门维尔 Scott Menville
      马修·伍德 Matthew Wood


◎标  签 动画 | 宠物 | 喜剧 | 美国 | 搞笑 | 萌 | 2019 | 动物

◎简  介

  《爱宠大机密2》将延续2016年夏天轰动一时的《爱宠大机密》的故事,讲述宠物在我们每天离家工作或上学后的生活。照明娱乐创始人兼首席执行官克里斯·梅勒丹德利和他长久以来的合作伙伴珍娜·海莉将共同制作这部续集。《爱宠大机密》是当时开画成绩最好的原创电影,不论是动画片还是其他类型。
  《爱宠大机密2》继续由布莱恩·林奇(《小黄人大眼萌》)编剧,并再一次由克里斯·雷纳德(《神偷奶爸》系列,《老雷斯的故事》)执导。
Video
ID : 1
Format : AVC
Format/Info : Advanced Video Codec
Format profile : [email protected]
Format settings : CABAC / 4 Ref Frames
Format settings, CABAC : Yes
Format settings, Reference frames : 4 frames
Codec ID : V_MPEG4/ISO/AVC
Duration : 1 h 26 min
Bit rate : 5 500 kb/s
Width : 1 280 pixels
Height : 690 pixels
Display aspect ratio : 1.85:1
Original display aspect ratio : 1.85:1
Frame rate mode : Constant
Frame rate : 23.976 (24000/1001) FPS
Color space : YUV
Chroma subsampling : 4:2:0
Bit depth : 8 bits
Scan type : Progressive
Bits/(Pixel*Frame) : 0.260
Stream size : 3.31 GiB (78%)
Title : The.Secret.Life.of.Pets.2.2019.720p.BluRay.x264.DTS-FGT
Writing library : x264 core 148 r2795M aaa9aa8
Encoding settings : cabac=1 / ref=4 / deblock=1:1:1 / analyse=0x3:0x113 / me=umh / subme=8 / psy=1 / psy_rd=0.50:0.00 / mixed_ref=1 / me_range=32 / chroma_me=1 / trellis=2 / 8x8dct=1 / cqm=0 / deadzone=21,11 / fast_pskip=1 / chroma_qp_offset=-2 / threads=22 / lookahead_threads=3 / sliced_threads=0 / nr=0 / decimate=1 / interlaced=0 / bluray_compat=0 / constrained_intra=0 / bframes=3 / b_pyramid=2 / b_adapt=1 / b_bias=0 / direct=3 / weightb=1 / open_gop=0 / weightp=2 / keyint=240 / keyint_min=24 / scenecut=40 / intra_refresh=0 / rc_lookahead=50 / rc=2pass / mbtree=1 / bitrate=5500 / ratetol=1.0 / qcomp=0.60 / qpmin=0 / qpmax=69 / qpstep=4 / cplxblur=20.0 / qblur=0.5 / vbv_maxrate=31250 / vbv_bufsize=31250 / nal_hrd=none / filler=0 / ip_ratio=1.40 / aq=3:0.60
Default : Yes
Forced : No

Audio
ID : 2
Format : DTS
Format/Info : Digital Theater Systems
Codec ID : A_DTS
Duration : 1 h 26 min
Bit rate mode : Constant
Bit rate : 1 509 kb/s
Channel(s) : 6 channels
Channel layout : C L R Ls Rs LFE
Sampling rate : 48.0 kHz
Frame rate : 93.750 FPS (512 SPF)
Bit depth : 24 bits
Compression mode : Lossy
Stream size : 929 MiB (22%)
Title : The.Secret.Life.of.Pets.2.2019.720p.BluRay.x264.DTS-FGT
Language : English
Default : Yes
Forced : No

Text #1
ID : 3
Format : UTF-8
Codec ID : S_TEXT/UTF8
Codec ID/Info : UTF-8 Plain Text
Duration : 1 h 25 min
Bit rate : 47 b/s
Count of elements : 1229
Stream size : 29.9 KiB (0%)
Language : English
Default : Yes
Forced : No

Text #2
ID : 4
Format : UTF-8
Codec ID : S_TEXT/UTF8
Codec ID/Info : UTF-8 Plain Text
Duration : 1 h 25 min
Bit rate : 77 b/s
Count of elements : 1924
Stream size : 48.5 KiB (0%)
Title : SDH
Language : English
Default : No
Forced : No

Menu
00:00:00.000 : en:Chapter 01
00:05:34.542 : en:Chapter 02
00:10:07.815 : en:Chapter 03
00:13:26.305 : en:Chapter 04
00:16:39.790 : en:Chapter 05
00:19:56.945 : en:Chapter 06
00:24:10.073 : en:Chapter 07
00:28:15.735 : en:Chapter 08
00:30:54.269 : en:Chapter 09
00:35:15.113 : en:Chapter 10
00:39:55.976 : en:Chapter 11
00:45:47.327 : en:Chapter 12
00:49:51.822 : en:Chapter 13
00:56:54.994 : en:Chapter 14
00:58:35.220 : en:Chapter 15
01:02:48.931 : en:Chapter 16
01:07:16.615 : en:Chapter 17
01:12:48.822 : en:Chapter 18
01:15:21.808 : en:Chapter 19
01:18:10.018 : en:Chapter 20

悠悠MP4_MP4电影下载_爱宠大机密2/Pet Pet当家2 The.Secret.Life.of.Pets.2.2019.720p.BluRay.x264.DTS-FGT 4.22GB悠悠MP4_MP4电影下载_爱宠大机密2/Pet Pet当家2 The.Secret.Life.of.Pets.2.2019.720p.BluRay.x264.DTS-FGT 4.22GB悠悠MP4_MP4电影下载_爱宠大机密2/Pet Pet当家2 The.Secret.Life.of.Pets.2.2019.720p.BluRay.x264.DTS-FGT 4.22GB


提示:如迅雷下载提示"任务出错"、"因版权无法下载",请尝试【迅雷5】
上传的附件:
最新回复 (0)
返回
本站所有资源均收集自互联网,没有提供影片资源存储, 也未参与录制、上传,若本站收录的资源无意侵犯了您的权益, 请联系邮箱:gogoimgs#gmail.com(#=@)