薇塔与弗吉尼亚/薇塔和维吉尼亚 Vita.and.Virginia.2018.1080p.WEB-DL.DD5.1.H264-FGT 4.18GB

uump4 1月前 117

帖子完整标题:薇塔与弗吉尼亚/薇塔和维吉尼亚 Vita.and.Virginia.2018.1080p.WEB-DL.DD5.1.H264-FGT 4.18GB


悠悠MP4_MP4电影下载_薇塔与弗吉尼亚/薇塔和维吉尼亚 Vita.and.Virginia.2018.1080p.WEB-DL.DD5.1.H264-FGT 4.18GB

◎译  名 薇塔与弗吉尼亚 / 薇塔和维吉尼亚
◎片  名 Vita and Virginia
◎年  代 2018
◎产  地 英国
◎类  别 剧情 / 爱情 / 同性 / 传记
◎语  言 英语
◎上映日期 2018-09-11(多伦多电影节) / 2019-08-23(美国)
◎IMDb评分 5.4/10 from 403 users
◎IMDb链接 http://www.imdb.com/title/tt5859882
◎豆瓣评分 6.8/10 from 71 users
◎豆瓣链接 https://movie.douban.com/subject/26322767/
◎片  长 110分钟
◎导  演 钱亚·波顿 Chanya Button
◎编  剧 艾琳·阿特金斯 Eileen Atkins / 弗吉尼亚·伍尔芙 Virginia Woolf / Vita Sackville-West
◎主  演 杰玛·阿特登 Gemma Arterton
      伊丽莎白·德比茨基 Elizabeth Debicki
      伊莎贝拉·罗西里尼 Isabella Rossellini
      鲁伯特·彭利-琼斯 Rupert Penry-Jones
      彼得·费迪南多 Peter Ferdinando


◎标  签 英国 | 传记 | LGBT | VirginiaWoolf | 英国电影 | 同性 | Les | 爱情

◎简  介

  影片背景设定在20年代的伦敦,剧情将会聚焦伍尔芙与韦斯特之间的情事:弗吉尼亚·史蒂芬1912年嫁给伦纳德·伍尔夫,接着遇见了上流社会人士兼作家薇塔·萨克维尔·韦斯特——哈罗德·尼科尔森的妻子。自1922始,她们开启了一段长达十年的恋情,并维持着性关系,互通了很多情书和日记。在她们的恋情终结之后,两人仍保持着良好的朋友关系,直到1941年伍尔芙去世。
  这将是Chanya Button自2015年《Burn Burn Burn》之后执导的第二部剧情长片,艾琳·阿特金斯编写剧本,根据她出演的同名舞台剧(1993年首次在伦敦上演,1994年登陆百老汇)改编,还会基于伍尔芙和韦斯特之间的情书进行创作。伊娃·格林和安德丽亚·瑞斯波罗格此前曾接触过伍尔芙这个角色,后相继退出。导演称这是一部“新鲜刺激,充满创造力、激情与性欲”的影片。其他卡司包括伊莎贝拉·罗西里尼、鲁伯特·彭利·琼斯、彼得·费迪南多,9月爱尔兰开拍。
Video
ID : 1
Format : AVC
Format/Info : Advanced Video Codec
Format profile : [email protected]
Format settings : CABAC / 4 Ref Frames
Format settings, CABAC : Yes
Format settings, Reference frames : 4 frames
Codec ID : V_MPEG4/ISO/AVC
Duration : 1 h 45 min
Bit rate : 5 290 kb/s
Width : 1 916 pixels
Height : 1 036 pixels
Display aspect ratio : 1.85:1
Frame rate mode : Constant
Frame rate : 25.000 FPS
Color space : YUV
Chroma subsampling : 4:2:0
Bit depth : 8 bits
Scan type : Progressive
Bits/(Pixel*Frame) : 0.107
Stream size : 3.89 GiB (93%)
Title : Vita.and.Virginia.2019.1080p.WEB-DL.DD5.1.H264-FGT
Language : English
Default : Yes
Forced : No
Color range : Limited
Color primaries : BT.709
Transfer characteristics : BT.709
Matrix coefficients : BT.709

Audio
ID : 2
Format : AC-3
Format/Info : Audio Coding 3
Commercial name : Dolby Digital
Codec ID : A_AC3
Duration : 1 h 45 min
Bit rate mode : Constant
Bit rate : 384 kb/s
Channel(s) : 6 channels
Channel layout : L R C LFE Ls Rs
Sampling rate : 48.0 kHz
Frame rate : 31.250 FPS (1536 SPF)
Bit depth : 16 bits
Compression mode : Lossy
Stream size : 289 MiB (7%)
Title : Vita.and.Virginia.2019.1080p.WEB-DL.DD5.1.H264-FGT
Language : English
Service kind : Complete Main
Default : Yes
Forced : No

Menu
00:00:00.000 : en:1
00:09:40.400 : en:2
00:16:38.720 : en:3
00:26:55.880 : en:4
00:34:58.680 : en:5
00:41:54.200 : en:6
00:51:29.319 : en:7
00:59:44.438 : en:8
01:10:14.197 : en:9
01:18:01.596 : en:10
01:27:54.035 : en:11
01:40:05.114 : en:12
01:45:23.994 : en:1

悠悠MP4_MP4电影下载_薇塔与弗吉尼亚/薇塔和维吉尼亚 Vita.and.Virginia.2018.1080p.WEB-DL.DD5.1.H264-FGT 4.18GB悠悠MP4_MP4电影下载_薇塔与弗吉尼亚/薇塔和维吉尼亚 Vita.and.Virginia.2018.1080p.WEB-DL.DD5.1.H264-FGT 4.18GB悠悠MP4_MP4电影下载_薇塔与弗吉尼亚/薇塔和维吉尼亚 Vita.and.Virginia.2018.1080p.WEB-DL.DD5.1.H264-FGT 4.18GB


提示:如迅雷下载提示"任务出错"、"因版权无法下载",请尝试【迅雷5】
上传的附件:
最新回复 (0)
返回
本站所有资源均收集自互联网,没有提供影片资源存储, 也未参与录制、上传,若本站收录的资源无意侵犯了您的权益, 请联系邮箱:gogoimgs#gmail.com(#=@)