端岛计划 Project.Hashima.2013.1080p.BluRay.x264-REGRET 8.75GB

uump4 1月前 71

帖子完整标题:端岛计划 Project.Hashima.2013.1080p.BluRay.x264-REGRET 8.75GB


悠悠MP4_MP4电影下载_端岛计划 Project.Hashima.2013.1080p.BluRay.x264-REGRET 8.75GB

◎译  名 端岛计划 / Hashima Project / H计划 / Project H / 鬼城(港)
◎片  名 ??????????????
◎年  代 2013
◎产  地 泰国
◎类  别 惊悚 / 恐怖 / 冒险
◎语  言 泰语
◎上映日期 2013-10-31(泰国)
◎IMDb评分 4.5/10 from 182 users
◎IMDb链接 http://www.imdb.com/title/tt3206074
◎豆瓣评分 4.9/10 from 1403 users
◎豆瓣链接 https://movie.douban.com/subject/25732529/
◎片  长 121分钟
◎导  演 皮亚潘·秋贝绮 Piyapan Choopetch
◎编  剧 Adirek Wattaleela
◎主  演 奥密兹·苏查拉特 Aomiz Suchar
      阿萍雅·萨库尔·加伦苏 Apinya Sakuljaroensuk
      麦克 Mike Pirath Nitipaisankul
      Alexander Rendell


◎标  签 恐怖 | 泰国 | 惊悚 | 2013 | 灵异 | 冒险 | 悬疑 | 至少我从前到尾看完了

◎简  介

  南、欧、尼克、窦和梅是五个刚毕业没多久的新新人类,出于对影视行业和灵异题材的热爱,他们拍摄了一支闹鬼废墟的小短片。虽然没有获得相关公司的认可,但一经上传后很快得到网友的广泛关注和支持。在此之后,专门拍摄灵异题材的制作公司鬼域(Ghost Land)联系到他们,邀请三个人前往端岛拍摄。端岛是位于日本长崎一座形状酷似军舰的岛屿,19世纪末曾凭借丰富的矿藏赢得某大型企业的关注,但是随着能源方式的改编如今已变成遍布废墟的荒岛。
  无所顾忌的年轻人们登上端岛,期间还遭遇传说中的美女美子的鬼魂,他们就此厄运缠身……

◎获奖情况

  第23届泰国电影金天鹅奖(2014)
  最佳女主角(提名) 阿萍雅·萨库尔加伦苏
  最佳视觉效果(提名)
Video
ID : 1
Format : AVC
Format/Info : Advanced Video Codec
Format profile : [email protected]
Format settings : CABAC / 5 Ref Frames
Format settings, CABAC : Yes
Format settings, Reference frames : 5 frames
Codec ID : V_MPEG4/ISO/AVC
Duration : 2 h 0 min
Bit rate : 8 839 kb/s
Width : 1 920 pixels
Height : 800 pixels
Display aspect ratio : 2.40:1
Frame rate mode : Constant
Frame rate : 24.000 FPS
Color space : YUV
Chroma subsampling : 4:2:0
Bit depth : 8 bits
Scan type : Progressive
Bits/(Pixel*Frame) : 0.240
Stream size : 7.47 GiB (85%)
Writing library : x264 core 157 r2970 5493be8
Encoding settings : cabac=1 / ref=5 / deblock=1:-3:-3 / analyse=0x3:0x133 / me=umh / subme=9 / psy=1 / psy_rd=1.00:0.00 / mixed_ref=1 / me_range=16 / chroma_me=1 / trellis=2 / 8x8dct=1 / cqm=0 / deadzone=21,11 / fast_pskip=0 / chroma_qp_offset=-2 / threads=24 / lookahead_threads=2 / sliced_threads=0 / nr=0 / decimate=1 / interlaced=0 / bluray_compat=0 / constrained_intra=0 / bframes=3 / b_pyramid=2 / b_adapt=1 / b_bias=0 / direct=3 / weightb=1 / open_gop=0 / weightp=2 / keyint=240 / keyint_min=24 / scenecut=40 / intra_refresh=0 / rc_lookahead=50 / rc=2pass / mbtree=1 / bitrate=8839 / ratetol=1.0 / qcomp=0.60 / qpmin=0 / qpmax=69 / qpstep=4 / cplxblur=20.0 / qblur=0.5 / ip_ratio=1.40 / aq=1:1.00
Language : English
Default : Yes
Forced : No

Audio
ID : 2
Format : DTS
Format/Info : Digital Theater Systems
Codec ID : A_DTS
Duration : 2 h 0 min
Bit rate mode : Constant
Bit rate : 1 509 kb/s
Channel(s) : 6 channels
Channel layout : C L R Ls Rs LFE
Sampling rate : 48.0 kHz
Frame rate : 93.750 FPS (512 SPF)
Bit depth : 24 bits
Compression mode : Lossy
Stream size : 1.28 GiB (15%)
Language : Thai
Default : Yes
Forced : No

Text
ID : 3
Format : UTF-8
Codec ID : S_TEXT/UTF8
Codec ID/Info : UTF-8 Plain Text
Duration : 1 h 57 min
Bit rate : 27 b/s
Count of elements : 880
Stream size : 23.4 KiB (0%)
Title : English
Language : English
Default : Yes
Forced : Yes

Menu
00:00:00.000 : en:00:00:00.000
00:10:18.167 : en:00:10:18.167
00:20:43.458 : en:00:20:43.458
00:28:24.292 : en:00:28:24.292
00:38:58.458 : en:00:38:58.458
00:50:52.875 : en:00:50:52.875
01:01:29.375 : en:01:01:29.375
01:08:54.333 : en:01:08:54.333
01:20:13.583 : en:01:20:13.583
01:30:13.333 : en:01:30:13.333
01:40:32.500 : en:01:40:32.500
01:49:14.167 : en:01:49:14.167

悠悠MP4_MP4电影下载_端岛计划 Project.Hashima.2013.1080p.BluRay.x264-REGRET 8.75GB


提示:如迅雷下载提示"任务出错"、"因版权无法下载",请尝试【迅雷5】
上传的附件:
最新回复 (0)
返回
本站所有资源均收集自互联网,没有提供影片资源存储, 也未参与录制、上传,若本站收录的资源无意侵犯了您的权益, 请联系邮箱:gogoimgs#gmail.com(#=@)