[更早] [其他] [剧情] [WEB-1080P] 监狱疯波/劣等阵容 Mean.Machine.2001.1080p.AMZN.WEBRip.DDP5.1.x264-monkee 9.78GB

uump4 11天前 122

帖子完整标题:监狱疯波/劣等阵容 Mean.Machine.2001.1080p.AMZN.WEBRip.DDP5.1.x264-monkee 9.78GB


悠悠MP4_MP4电影下载_监狱疯波/劣等阵容 Mean.Machine.2001.1080p.AMZN.WEBRip.DDP5.1.x264-monkee 9.78GB

◎译  名 监狱疯波 / 劣等阵容 / 监狱风波 / 神鬼团队
◎片  名 Mean Machine
◎年  代 2001
◎产  地 英国 / 美国
◎类  别 剧情 / 喜剧 / 运动
◎语  言 英语
◎上映日期 2001-12-26
◎IMDb评分  6.5/10 from 33515 users
◎IMDb链接  http://www.imdb.com/title/tt0291341
◎豆瓣评分 7.1/10 from 1335 users
◎豆瓣链接 https://movie.douban.com/subject/1307631/
◎片  长 99 分钟
◎导  演 Barry Skolnick
◎编  剧 Andrew Day / Charlie Fletcher / Chris Baker
◎主  演 Vinnie Jones


◎标  签 英国 | 黑色幽默 | 喜剧 | 英国电影 | 监狱 | 足球 | JasonStatham | 体育

◎简  介  

  故事发生在英国,丹尼(维尼·琼斯 Vinnie Jones 饰)是一名风头正劲的球星,成功的事业、丰厚的收入、漂亮的女友,丹尼所拥有的一切令他成为了众人羡慕的对象。然而,在一场意外中,丹尼因为醉酒闹事而被投入了监狱,这不仅意味着他将错过一场对于自己来说十分重要的比赛,更意味着,他将失去生活中曾经拥有的一切。
  监狱里有一支由狱警们所组成的足球队,一天,典狱长(戴维·海明斯 David Hemmings 饰)找到了心灰意冷的丹尼,希望他能够成为球队的代理教练,帮助球队获得季度比赛的冠军。然而,丹尼却提出了一个令典狱长惊讶的要求,他希望亲自挑选犯人,重组球队。

Video
ID                                       : 1
Format                                   : AVC
Format/Info                              : Advanced Video Codec
Format profile                           : [email protected]
Format settings                          : CABAC / 4 Ref Frames
Format settings, CABAC                   : Yes
Format settings, Reference frames        : 4 frames
Codec ID                                 : V_MPEG4/ISO/AVC
Duration                                 : 1 h 39 min
Bit rate mode                            : Variable
Bit rate                                 : 13.5 Mb/s
Maximum bit rate                         : 15.0 Mb/s
Width                                    : 1 920 pixels
Height                                   : 1 080 pixels
Display aspect ratio                     : 16:9
Frame rate mode                          : Constant
Frame rate                               : 23.976 (24000/1001) FPS
Color space                              : YUV
Chroma subsampling                       : 4:2:0
Bit depth                                : 8 bits
Scan type                                : Progressive
Bits/(Pixel*Frame)                       : 0.271
Stream size                              : 9.33 GiB (95%)
Default                                  : Yes
Forced                                   : No
Color range                              : Limited
Color primaries                          : BT.709
Transfer characteristics                 : BT.709
Matrix coefficients                      : BT.709

Audio
ID                                       : 2
Format                                   : E-AC-3
Format/Info                              : Enhanced AC-3
Commercial name                          : Dolby Digital Plus
Codec ID                                 : A_EAC3
Duration                                 : 1 h 39 min
Bit rate mode                            : Constant
Bit rate                                 : 640 kb/s
Channel(s)                               : 6 channels
Channel layout                           : L R C LFE Ls Rs
Sampling rate                            : 48.0 kHz
Frame rate                               : 31.250 FPS (1536 SPF)
Compression mode                         : Lossy
Stream size                              : 454 MiB (5%)
Language                                 : English
Service kind                             : Complete Main
Default                                  : Yes
Forced                                   : No

Text #1
ID                                       : 3
Format                                   : UTF-8
Codec ID                                 : S_TEXT/UTF8
Codec ID/Info                            : UTF-8 Plain Text
Duration                                 : 1 h 38 min
Bit rate                                 : 69 b/s
Count of elements                        : 1509
Stream size                              : 50.2 KiB (0%)
Language                                 : English
Default                                  : No
Forced                                   : No

Text #2
ID                                       : 4
Format                                   : UTF-8
Codec ID                                 : S_TEXT/UTF8
Codec ID/Info                            : UTF-8 Plain Text
Duration                                 : 1 h 38 min
Bit rate                                 : 73 b/s
Count of elements                        : 1642
Stream size                              : 53.4 KiB (0%)
Title                                    : SDH
Language                                 : English
Default                                  : No
Forced                                   : No


悠悠MP4_MP4电影下载_监狱疯波/劣等阵容 Mean.Machine.2001.1080p.AMZN.WEBRip.DDP5.1.x264-monkee 9.78GB悠悠MP4_MP4电影下载_监狱疯波/劣等阵容 Mean.Machine.2001.1080p.AMZN.WEBRip.DDP5.1.x264-monkee 9.78GB悠悠MP4_MP4电影下载_监狱疯波/劣等阵容 Mean.Machine.2001.1080p.AMZN.WEBRip.DDP5.1.x264-monkee 9.78GB


提示:如迅雷下载提示"任务出错"、"因版权无法下载",请尝试【迅雷5】
上传的附件:
最新回复 (0)
返回
本站所有资源均收集自互联网,没有提供影片资源存储, 也未参与录制、上传,若本站收录的资源无意侵犯了您的权益, 请联系邮箱:gogoimgs#gmail.com(#=@)