[2012] [欧美] [其他] [WEB-1080P] 重建世贸中心 16.Acres.2012.1080p.AMZN.WEBRip.DDP2.0.x264-TEPES 5.63GB

uump4 4月前 183

帖子完整标题:重建世贸中心 16.Acres.2012.1080p.AMZN.WEBRip.DDP2.0.x264-TEPES 5.63GB


悠悠MP4_MP4电影下载_重建世贸中心 16.Acres.2012.1080p.AMZN.WEBRip.DDP2.0.x264-TEPES 5.63GB

◎译  名 重建世贸中心
◎片  名 16 Acres
◎年  代 2012
◎产  地 美国
◎类  别 纪录片
◎语  言 英语
◎上映日期 2012-11-16(美国)
◎IMDb评分 6.7/10 from 238 users
◎IMDb链接 http://www.imdb.com/title/tt2234419
◎豆瓣评分 0/10 from 0 users
◎豆瓣链接 https://movie.douban.com/subject/24522056/
◎片  长 95分钟
◎导  演 Richard Hankin
◎主  演 迈克·布隆伯格 Michael Bloomberg


◎标  签 纪录片 | 美国 | 2013上海国际电影节 | 政治 | SIFF | 2012 | 2013 | 2013SIFF

◎简  介

  “9·11事件”对整个人类来说是一场灾难,但没有人能比纽约人更加感同身受。事件过后留给纽约的除了悲伤痛苦还有地图上16亩地的空白。究竟是原样重建世贸中心、重新设计建造世贸中心还是永久留下这块土地供人缅怀成了很大的一个问题。本片导演理查德·哈金曾是奥斯卡最佳纪录片奖得主《追捕弗雷德曼家族》的剪辑师,他通过政府、开发商、建筑师以及普通民众等多个角度详细讲述了事件过后十二年来在这片土地上发生的各种意想不到的矛盾与斗争。
Video
ID : 1
Format : AVC
Format/Info : Advanced Video Codec
Format profile : [email protected]
Format settings : CABAC / 4 Ref Frames
Format settings, CABAC : Yes
Format settings, Reference frames : 4 frames
Codec ID : V_MPEG4/ISO/AVC
Duration : 1 h 32 min
Bit rate mode : Constant
Bit rate : 8 491 kb/s
Nominal bit rate : 10 000 kb/s
Width : 1 920 pixels
Height : 1 080 pixels
Display aspect ratio : 16:9
Frame rate mode : Constant
Frame rate : 23.976 (24000/1001) FPS
Color space : YUV
Chroma subsampling : 4:2:0
Bit depth : 8 bits
Scan type : Progressive
Bits/(Pixel*Frame) : 0.171
Stream size : 5.48 GiB (97%)
Default : Yes
Forced : No
Color range : Limited
Color primaries : BT.709
Transfer characteristics : BT.709
Matrix coefficients : BT.709

Audio
ID : 2
Format : E-AC-3
Format/Info : Enhanced AC-3
Commercial name : Dolby Digital Plus
Codec ID : A_EAC3
Duration : 1 h 32 min
Bit rate mode : Constant
Bit rate : 224 kb/s
Channel(s) : 2 channels
Channel layout : L R
Sampling rate : 48.0 kHz
Frame rate : 31.250 FPS (1536 SPF)
Compression mode : Lossy
Stream size : 148 MiB (3%)
Language : English
Service kind : Complete Main
Default : Yes
Forced : No

Text
ID : 3
Format : UTF-8
Codec ID : S_TEXT/UTF8
Codec ID/Info : UTF-8 Plain Text
Duration : 1 h 30 min
Bit rate : 106 b/s
Count of elements : 1355
Stream size : 70.8 KiB (0%)
Title : English [CC](SDH)
Language : English
Default : Yes
Forced : No

悠悠MP4_MP4电影下载_重建世贸中心 16.Acres.2012.1080p.AMZN.WEBRip.DDP2.0.x264-TEPES 5.63GB悠悠MP4_MP4电影下载_重建世贸中心 16.Acres.2012.1080p.AMZN.WEBRip.DDP2.0.x264-TEPES 5.63GB悠悠MP4_MP4电影下载_重建世贸中心 16.Acres.2012.1080p.AMZN.WEBRip.DDP2.0.x264-TEPES 5.63GB


提示:如迅雷下载提示"任务出错"、"因版权无法下载",请尝试【迅雷5】
上传的附件:
最新回复 (0)
返回
本站所有资源均收集自互联网,没有提供影片资源存储, 也未参与录制、上传,若本站收录的资源无意侵犯了您的权益, 请联系邮箱:gogoimgs#gmail.com(#=@)