[2013] [欧美] [喜剧] [WEB-1080P] 追星 Dealin.with.Idiots.2013.1080p.AMZN.WEBRip.DDP5.1.x264-TEPES 6.08GB

uump4 1月前 89

帖子完整标题:追星 Dealin.with.Idiots.2013.1080p.AMZN.WEBRip.DDP5.1.x264-TEPES 6.08GB


悠悠MP4_MP4电影下载_追星 Dealin.with.Idiots.2013.1080p.AMZN.WEBRip.DDP5.1.x264-TEPES 6.08GB

◎译  名 追星
◎片  名 Dealin' with Idiots
◎年  代 2013
◎产  地 美国
◎类  别 喜剧
◎语  言 英语
◎上映日期 2013-06-12(美国)
◎IMDb评分  5.4/10 from 1186 users
◎IMDb链接  http://www.imdb.com/title/tt2948266
◎豆瓣评分 0/10 from 0 users
◎豆瓣链接 https://movie.douban.com/subject/24839135/
◎导  演 杰夫·格尔林 Jeff Garlin
◎编  剧 杰夫·格尔林 Jeff Garlin / Peter Murrieta
◎主  演 杰夫·格尔林 Jeff Garlin
       吉娜·格申 Gina Gershon
       杰米·格尔兹 Jami Gertz
       鲍勃·奥登科克 Bob Odenkirk
       妮娅·瓦达拉斯 Nia Vardalos
       理查德·坎德 Richard Kind


◎标  签 美国 | 喜剧 | 美国电影 | JeffGarlin | 2013 | 不感兴趣 | 追星 | 电影

◎简  介  

  MaxMorris 一个著名的喜剧演员 他的儿子却沉迷于青年棒球联盟的荒唐竞争中 他应该如何面对呢。。。

Video
ID                                       : 1
Format                                   : AVC
Format/Info                              : Advanced Video Codec
Format profile                           : [email protected]
Format settings                          : CABAC / 4 Ref Frames
Format settings, CABAC                   : Yes
Format settings, Reference frames        : 4 frames
Codec ID                                 : V_MPEG4/ISO/AVC
Duration                                 : 1 h 26 min
Bit rate mode                            : Constant
Bit rate                                 : 9 397 kb/s
Nominal bit rate                         : 10 000 kb/s
Width                                    : 1 920 pixels
Height                                   : 1 040 pixels
Display aspect ratio                     : 1.85:1
Frame rate mode                          : Constant
Frame rate                               : 23.976 (24000/1001) FPS
Color space                              : YUV
Chroma subsampling                       : 4:2:0
Bit depth                                : 8 bits
Scan type                                : Progressive
Bits/(Pixel*Frame)                       : 0.196
Stream size                              : 5.69 GiB (94%)
Language                                 : English
Default                                  : Yes
Forced                                   : No
Color range                              : Limited
Color primaries                          : BT.709
Transfer characteristics                 : BT.709
Matrix coefficients                      : BT.709

Audio
ID                                       : 2
Format                                   : E-AC-3
Format/Info                              : Enhanced AC-3
Commercial name                          : Dolby Digital Plus
Codec ID                                 : A_EAC3
Duration                                 : 1 h 26 min
Bit rate mode                            : Constant
Bit rate                                 : 640 kb/s
Channel(s)                               : 6 channels
Channel layout                           : L R C LFE Ls Rs
Sampling rate                            : 48.0 kHz
Frame rate                               : 31.250 FPS (1536 SPF)
Compression mode                         : Lossy
Stream size                              : 397 MiB (6%)
Language                                 : English
Service kind                             : Complete Main
Default                                  : Yes
Forced                                   : No

Text
ID                                       : 3
Format                                   : UTF-8
Codec ID                                 : S_TEXT/UTF8
Codec ID/Info                            : UTF-8 Plain Text
Duration                                 : 1 h 23 min
Bit rate                                 : 110 b/s
Count of elements                        : 2271
Stream size                              : 67.8 KiB (0%)
Title                                    : English [CC](SDH)
Language                                 : English
Default                                  : Yes
Forced                                   : No


悠悠MP4_MP4电影下载_追星 Dealin.with.Idiots.2013.1080p.AMZN.WEBRip.DDP5.1.x264-TEPES 6.08GB悠悠MP4_MP4电影下载_追星 Dealin.with.Idiots.2013.1080p.AMZN.WEBRip.DDP5.1.x264-TEPES 6.08GB悠悠MP4_MP4电影下载_追星 Dealin.with.Idiots.2013.1080p.AMZN.WEBRip.DDP5.1.x264-TEPES 6.08GB


提示:如迅雷下载提示"任务出错"、"因版权无法下载",请尝试【迅雷5】
上传的附件:
最新回复 (0)
返回
本站所有资源均收集自互联网,没有提供影片资源存储, 也未参与录制、上传,若本站收录的资源无意侵犯了您的权益, 请联系邮箱:gogoimgs#gmail.com(#=@)