[2015] [欧美] [剧情] [WEB-1080P] 南方 Dixieland.2015.1080p.AMZN.WEBRip.DDP5.1.x264-TEPES 7.03GB

uump4 1月前 91

帖子完整标题:南方 Dixieland.2015.1080p.AMZN.WEBRip.DDP5.1.x264-TEPES 7.03GB


悠悠MP4_MP4电影下载_南方 Dixieland.2015.1080p.AMZN.WEBRip.DDP5.1.x264-TEPES 7.03GB

◎译  名 南方
◎片  名 Dixieland
◎年  代 2015
◎产  地 美国
◎类  别 剧情 / 犯罪
◎语  言 英语
◎上映日期 2015-04-19(美国)
◎IMDb评分  5.2/10 from 1031 users
◎IMDb链接  http://www.imdb.com/title/tt4188436
◎豆瓣评分 0/10 from 0 users
◎豆瓣链接 https://movie.douban.com/subject/26675324/
◎片  长 92分钟
◎导  演 Hank Bedford
◎编  剧 Hank Bedford
◎主  演 克里斯·泽尔卡 Chris Zylka
       丽莉·克亚芙 Riley Keough
       菲丝·希尔 Faith Hill
       RJ·米特 RJ Mitte
       布拉德·卡特 Brad Carter
       Steve Earle
       斯宾赛·洛夫兰科 Spencer Lofranco


◎标  签 美国 | 犯罪 | 剧情 | 2015 | 美国电影 | 独立电影 | 文艺 | ★★★

◎简  介  

  A young, recently-released and unpredictable ex-con with bad luck, and a sexy, listless girl-next-door with a troubled family, become trapped in a downward spiral of crime and obsessive love, as they try to ditch their dead-end town for a better life.

Video
ID                                       : 1
Format                                   : AVC
Format/Info                              : Advanced Video Codec
Format profile                           : [email protected]
Format settings                          : CABAC / 4 Ref Frames
Format settings, CABAC                   : Yes
Format settings, Reference frames        : 4 frames
Codec ID                                 : V_MPEG4/ISO/AVC
Duration                                 : 1 h 38 min
Bit rate mode                            : Constant
Bit rate                                 : 10 000 kb/s
Width                                    : 1 920 pixels
Height                                   : 1 040 pixels
Display aspect ratio                     : 1.85:1
Frame rate mode                          : Constant
Frame rate                               : 24.000 FPS
Color space                              : YUV
Chroma subsampling                       : 4:2:0
Bit depth                                : 8 bits
Scan type                                : Progressive
Bits/(Pixel*Frame)                       : 0.209
Stream size                              : 6.59 GiB (94%)
Language                                 : English
Default                                  : Yes
Forced                                   : No
Color range                              : Limited
Color primaries                          : BT.709
Transfer characteristics                 : BT.709
Matrix coefficients                      : BT.709

Audio
ID                                       : 2
Format                                   : E-AC-3
Format/Info                              : Enhanced AC-3
Commercial name                          : Dolby Digital Plus
Codec ID                                 : A_EAC3
Duration                                 : 1 h 38 min
Bit rate mode                            : Constant
Bit rate                                 : 640 kb/s
Channel(s)                               : 6 channels
Channel layout                           : L R C LFE Ls Rs
Sampling rate                            : 48.0 kHz
Frame rate                               : 31.250 FPS (1536 SPF)
Compression mode                         : Lossy
Stream size                              : 452 MiB (6%)
Language                                 : English
Service kind                             : Complete Main
Default                                  : Yes
Forced                                   : No

Text
ID                                       : 3
Format                                   : UTF-8
Codec ID                                 : S_TEXT/UTF8
Codec ID/Info                            : UTF-8 Plain Text
Duration                                 : 1 h 38 min
Bit rate                                 : 51 b/s
Count of elements                        : 1271
Stream size                              : 37.1 KiB (0%)
Title                                    : English [CC](SDH)
Language                                 : English
Default                                  : Yes
Forced                                   : No


悠悠MP4_MP4电影下载_南方 Dixieland.2015.1080p.AMZN.WEBRip.DDP5.1.x264-TEPES 7.03GB悠悠MP4_MP4电影下载_南方 Dixieland.2015.1080p.AMZN.WEBRip.DDP5.1.x264-TEPES 7.03GB悠悠MP4_MP4电影下载_南方 Dixieland.2015.1080p.AMZN.WEBRip.DDP5.1.x264-TEPES 7.03GB


提示:如迅雷下载提示"任务出错"、"因版权无法下载",请尝试【迅雷5】
上传的附件:
最新回复 (0)
返回
本站所有资源均收集自互联网,没有提供影片资源存储, 也未参与录制、上传,若本站收录的资源无意侵犯了您的权益, 请联系邮箱:gogoimgs#gmail.com(#=@)