[2012] [欧美] [剧情] [WEB-1080P] 日复一日/七天 Everyday.2012.1080p.AMZN.WEBRip.DDP5.1.x264-TEPES 8.05GB

uump4 1月前 100

帖子完整标题:日复一日/七天 Everyday.2012.1080p.AMZN.WEBRip.DDP5.1.x264-TEPES 8.05GB


悠悠MP4_MP4电影下载_日复一日/七天 Everyday.2012.1080p.AMZN.WEBRip.DDP5.1.x264-TEPES 8.05GB

◎译  名 日复一日 / 七天 / 日日思君 / 每天 / 牢里牢外
◎片  名 Everyday
◎年  代 2012
◎产  地 英国
◎类  别 剧情
◎语  言 英语
◎上映日期 2013-01-18(英国)
◎IMDb评分  6.2/10 from 715 users
◎IMDb链接  http://www.imdb.com/title/tt1037223
◎豆瓣评分 7.5/10 from 393 users
◎豆瓣链接 https://movie.douban.com/subject/2244738/
◎片  长 106分钟
◎导  演 迈克尔·温特伯顿 Michael Winterbottom
◎编  剧 Laurence Coriat / 迈克尔·温特伯顿 Michael Winterbottom
◎主  演 约翰·西姆 John Simm
       雪莉·亨德森 Shirley Henderson


◎标  签 英国 | 英国电影 | JohnSimm | 2012 | 剧情 | MichaelWinterbottom | 电影 | 家庭

◎简  介  

  曾获柏林电影节金熊奖的英国导演迈克尔·温特波顿用五年时间,以伪纪录的手法,拍摄入狱的丈夫、辛苦养家的妻子及四个孩子的生活。影片风格平实而含蓄,五年间孩子在镜头前慢慢长大,一点一滴的片段涌现出时光流逝的自然魅力。导演采用无剧本方式,每周拍摄一次,小演员们以真名参与拍摄,在未经雕琢的逼实状态下进行演出。曾出演长寿英剧《神秘博士》的约翰·西姆和科幻巨制《哈利·波特》的雪莉·亨德森分饰父母,也是本片的一大亮点。

◎获奖情况  

  第56届伦敦电影节(2012)
  最佳影片(提名) 迈克尔·温特伯顿

Video
ID                                       : 1
Format                                   : AVC
Format/Info                              : Advanced Video Codec
Format profile                           : [email protected]
Format settings                          : CABAC / 4 Ref Frames
Format settings, CABAC                   : Yes
Format settings, Reference frames        : 4 frames
Codec ID                                 : V_MPEG4/ISO/AVC
Duration                                 : 1 h 30 min
Bit rate mode                            : Variable
Bit rate                                 : 12.1 Mb/s
Maximum bit rate                         : 15.0 Mb/s
Width                                    : 1 920 pixels
Height                                   : 1 080 pixels
Display aspect ratio                     : 16:9
Frame rate mode                          : Constant
Frame rate                               : 24.000 FPS
Color space                              : YUV
Chroma subsampling                       : 4:2:0
Bit depth                                : 8 bits
Scan type                                : Progressive
Bits/(Pixel*Frame)                       : 0.244
Stream size                              : 7.65 GiB (95%)
Writing library                          : x264 core 148 r2623 d5b2374
Encoding settings                        : cabac=1 / ref=4 / deblock=1:-1:-1 / analyse=0x3:0x133 / me=umh / subme=9 / psy=1 / psy_rd=1.00:0.15 / mixed_ref=1 / me_range=24 / chroma_me=1 / trellis=2 / 8x8dct=1 / cqm=0 / deadzone=21,11 / fast_pskip=1 / chroma_qp_offset=-3 / threads=34 / lookahead_threads=5 / sliced_threads=0 / nr=150 / decimate=1 / interlaced=0 / bluray_compat=0 / constrained_intra=0 / bframes=8 / b_pyramid=2 / b_adapt=2 / b_bias=0 / direct=3 / weightb=1 / open_gop=0 / weightp=2 / keyint=120 / keyint_min=61 / scenecut=0 / intra_refresh=0 / rc_lookahead=120 / rc=crf / mbtree=1 / crf=18.0 / qcomp=0.60 / qpmin=0 / qpmax=69 / qpstep=4 / vbv_maxrate=15000 / vbv_bufsize=31250 / crf_max=0.0 / nal_hrd=vbr / filler=0 / ip_ratio=1.40 / aq=3:1.00
Default                                  : Yes
Forced                                   : No
Color range                              : Limited
Color primaries                          : BT.709
Transfer characteristics                 : BT.709
Matrix coefficients                      : BT.709

Audio
ID                                       : 2
Format                                   : E-AC-3
Format/Info                              : Enhanced AC-3
Commercial name                          : Dolby Digital Plus
Codec ID                                 : A_EAC3
Duration                                 : 1 h 30 min
Bit rate mode                            : Constant
Bit rate                                 : 640 kb/s
Channel(s)                               : 6 channels
Channel layout                           : L R C LFE Ls Rs
Sampling rate                            : 48.0 kHz
Frame rate                               : 31.250 FPS (1536 SPF)
Compression mode                         : Lossy
Stream size                              : 413 MiB (5%)
Language                                 : English
Service kind                             : Complete Main
Default                                  : Yes
Forced                                   : No

Text
ID                                       : 3
Format                                   : UTF-8
Codec ID                                 : S_TEXT/UTF8
Codec ID/Info                            : UTF-8 Plain Text
Duration                                 : 1 h 30 min
Bit rate                                 : 52 b/s
Count of elements                        : 1979
Stream size                              : 34.7 KiB (0%)
Title                                    : English [CC](SDH)
Language                                 : English
Default                                  : Yes
Forced                                   : No


悠悠MP4_MP4电影下载_日复一日/七天 Everyday.2012.1080p.AMZN.WEBRip.DDP5.1.x264-TEPES 8.05GB悠悠MP4_MP4电影下载_日复一日/七天 Everyday.2012.1080p.AMZN.WEBRip.DDP5.1.x264-TEPES 8.05GB悠悠MP4_MP4电影下载_日复一日/七天 Everyday.2012.1080p.AMZN.WEBRip.DDP5.1.x264-TEPES 8.05GB


提示:如迅雷下载提示"任务出错"、"因版权无法下载",请尝试【迅雷5】
上传的附件:
最新回复 (0)
返回
本站所有资源均收集自互联网,没有提供影片资源存储, 也未参与录制、上传,若本站收录的资源无意侵犯了您的权益, 请联系邮箱:gogoimgs#gmail.com(#=@)