[2012] [欧美] [剧情] [WEB-1080P] 给我钱/战利品 Gimme.The.Loot.2012.1080p.AMZN.WEBRip.DDP5.1.x264-TEPES 5.53GB

uump4 5天前 79

帖子完整标题:给我钱/战利品 Gimme.The.Loot.2012.1080p.AMZN.WEBRip.DDP5.1.x264-TEPES 5.53GB


悠悠MP4_MP4电影下载_给我钱/战利品 Gimme.The.Loot.2012.1080p.AMZN.WEBRip.DDP5.1.x264-TEPES 5.53GB

◎译  名 给我钱 / 战利品
◎片  名 Gimme the Loot
◎年  代 2012
◎产  地 美国
◎类  别 剧情 / 喜剧 / 犯罪
◎语  言 英语
◎上映日期 2012-03-10(西南偏南电影节)
◎IMDb评分 6.6/10 from 2296 users
◎IMDb链接 http://www.imdb.com/title/tt2139919
◎豆瓣评分 6.9/10 from 40 users
◎豆瓣链接 https://movie.douban.com/subject/10559672/
◎片  长 79分钟
◎导  演 亚当·里昂 Adam Leon
◎编  剧 亚当·里昂 Adam Leon
◎主  演 Ty Hickson
      Zo? Lescaze
      Joshua Rivera
      Tashiana Washington


◎标  签 美国 | 独立电影 | 剧情 | 2012 | 青春 | 美国电影 | 犯罪 | Zo?Lescaze

◎简  介

  When a rival gang buffs Malcolm and Sofia's latest graffiti masterpiece with a replica of the NY Mets home-run apple, they're determined to get spectacular revenge - by tagging the real Mets' apple. Over the course of a whirlwind two-day heat wave, these tough teens from the Bronx must hustle, scramble, and steal to execute the scheme that will make them the most famous writers in New York.

◎获奖情况

  第65届戛纳电影节(2012)
  金摄影机奖(导演处女作奖)(提名) 亚当·里昂

  第28届美国独立精神奖(2013)
  最佳处女作(提名) Dominic Buchanan / Natalie Difford / 亚当·里昂 / 贾蒙·华盛顿
  值得关注新人奖 亚当·里昂

  第23届哥谭独立电影奖(2013)
  独立电影人奖(提名) 亚当·里昂
Video
ID : 1
Format : AVC
Format/Info : Advanced Video Codec
Format profile : [email protected]
Format settings : CABAC / 4 Ref Frames
Format settings, CABAC : Yes
Format settings, Reference frames : 4 frames
Codec ID : V_MPEG4/ISO/AVC
Duration : 1 h 19 min
Bit rate mode : Constant
Bit rate : 9 324 kb/s
Nominal bit rate : 10 000 kb/s
Width : 1 920 pixels
Height : 1 080 pixels
Display aspect ratio : 16:9
Frame rate mode : Constant
Frame rate : 23.976 (24000/1001) FPS
Color space : YUV
Chroma subsampling : 4:2:0
Bit depth : 8 bits
Scan type : Progressive
Bits/(Pixel*Frame) : 0.188
Stream size : 5.17 GiB (94%)
Default : Yes
Forced : No
Color range : Limited
Color primaries : BT.709
Transfer characteristics : BT.709
Matrix coefficients : BT.709

Audio
ID : 2
Format : E-AC-3
Format/Info : Enhanced AC-3
Commercial name : Dolby Digital Plus
Codec ID : A_EAC3
Duration : 1 h 19 min
Bit rate mode : Constant
Bit rate : 640 kb/s
Channel(s) : 6 channels
Channel layout : L R C LFE Ls Rs
Sampling rate : 48.0 kHz
Frame rate : 31.250 FPS (1536 SPF)
Compression mode : Lossy
Stream size : 363 MiB (6%)
Language : English
Service kind : Complete Main
Default : Yes
Forced : No

Text
ID : 3
Format : UTF-8
Codec ID : S_TEXT/UTF8
Codec ID/Info : UTF-8 Plain Text
Duration : 1 h 19 min
Bit rate : 94 b/s
Count of elements : 2546
Stream size : 54.8 KiB (0%)
Title : English [CC](SDH)
Language : English
Default : Yes
Forced : No

悠悠MP4_MP4电影下载_给我钱/战利品 Gimme.The.Loot.2012.1080p.AMZN.WEBRip.DDP5.1.x264-TEPES 5.53GB悠悠MP4_MP4电影下载_给我钱/战利品 Gimme.The.Loot.2012.1080p.AMZN.WEBRip.DDP5.1.x264-TEPES 5.53GB悠悠MP4_MP4电影下载_给我钱/战利品 Gimme.The.Loot.2012.1080p.AMZN.WEBRip.DDP5.1.x264-TEPES 5.53GB


提示:如迅雷下载提示"任务出错"、"因版权无法下载",请尝试【迅雷5】
上传的附件:
最新回复 (0)
返回
本站所有资源均收集自互联网,没有提供影片资源存储, 也未参与录制、上传,若本站收录的资源无意侵犯了您的权益, 请联系邮箱:gogoimgs#gmail.com(#=@)