[2008] [欧美] [剧情] [WEB-1080P] 贝比 Baby.2007.1080p.WEBRip.x264-RARBG 1.90GB

uump4 1月前 87

帖子完整标题:贝比 Baby.2007.1080p.WEBRip.x264-RARBG 1.90GB


悠悠MP4_MP4电影下载_贝比 Baby.2007.1080p.WEBRip.x264-RARBG 1.90GB

◎译  名 贝比
◎片  名 Baby
◎年  代 2008
◎产  地 美国
◎类  别 剧情 / 惊悚 / 犯罪
◎语  言 英语
◎上映日期 2008-12-30
◎IMDb评分  5.6/10 from 377 users
◎IMDb链接  http://www.imdb.com/title/tt0457286
◎豆瓣评分 6.4/10 from 76 users
◎豆瓣链接 https://movie.douban.com/subject/3271606/
◎导  演 Juwan Chung
◎主  演 David Huynh ... Baby
       Feodor Chin ... Benny
       Ron Yuan ... Tommy


◎标  签 我看过的电影 | 我看过的英语电影 | 英语电影 | 我的标签 | 英语标签 | 黑幫 | 青春 | 英语的标签

◎简  介  

  故事发生在八十年代中期至到早期的九十年代。这部电影述说一个悲惨的故事。电影的背景采自在洛杉机的东北部。话说一群亚洲少年无所事事,过着流氓般的生活。犯罪,抢战等等都有。其中一名流氓,以黑头罩闻名。
  -------------------------------
  我只是对中文译名很好奇。。。。

Video
ID                                       : 1
Format                                   : AVC
Format/Info                              : Advanced Video Codec
Format profile                           : [email protected]
Format settings                          : CABAC / 4 Ref Frames
Format settings, CABAC                   : Yes
Format settings, Reference frames        : 4 frames
Codec ID                                 : avc1
Codec ID/Info                            : Advanced Video Coding
Duration                                 : 1 h 39 min
Source duration                          : 1 h 39 min
Bit rate                                 : 2 500 kb/s
Width                                    : 1 920 pixels
Height                                   : 800 pixels
Display aspect ratio                     : 2.40:1
Frame rate mode                          : Constant
Frame rate                               : 23.976 (23976/1000) FPS
Color space                              : YUV
Chroma subsampling                       : 4:2:0
Bit depth                                : 8 bits
Scan type                                : Progressive
Bits/(Pixel*Frame)                       : 0.068
Stream size                              : 1.74 GiB (92%)
Source stream size                       : 1.74 GiB (92%)
Writing library                          : x264 core 152 r2851M ba24899
Encoding settings                        : cabac=1 / ref=4 / deblock=1:-1:-1 / analyse=0x3:0x113 / me=umh / subme=9 / psy=1 / psy_rd=1.00:0.15 / mixed_ref=1 / me_range=24 / chroma_me=1 / trellis=2 / 8x8dct=1 / cqm=0 / deadzone=21,11 / fast_pskip=1 / chroma_qp_offset=-3 / threads=16 / lookahead_threads=4 / sliced_threads=0 / nr=0 / decimate=1 / interlaced=0 / bluray_compat=0 / constrained_intra=0 / bframes=3 / b_pyramid=2 / b_adapt=2 / b_bias=0 / direct=3 / weightb=1 / open_gop=0 / weightp=2 / keyint=250 / keyint_min=25 / scenecut=40 / intra_refresh=0 / rc_lookahead=50 / rc=2pass / mbtree=1 / bitrate=2500 / ratetol=1.0 / qcomp=0.60 / qpmin=0 / qpmax=69 / qpstep=4 / cplxblur=20.0 / qblur=0.5 / vbv_maxrate=31250 / vbv_bufsize=31250 / nal_hrd=none / filler=0 / ip_ratio=1.40 / aq=3:1.00
Encoded date                             : UTC 2019-08-13 10:45:06
Tagged date                              : UTC 2019-08-13 10:45:06
Codec configuration box                  : avcC

Audio
ID                                       : 2
Format                                   : AAC LC
Format/Info                              : Advanced Audio Codec Low Complexity
Codec ID                                 : mp4a-40-2
Duration                                 : 1 h 39 min
Bit rate mode                            : Constant
Bit rate                                 : 224 kb/s
Channel(s)                               : 2 channels
Channel layout                           : L R
Sampling rate                            : 48.0 kHz
Frame rate                               : 46.875 FPS (1024 SPF)
Compression mode                         : Lossy
Stream size                              : 160 MiB (8%)
Default                                  : Yes
Alternate group                          : 1
Encoded date                             : UTC 2019-08-13 10:45:06
Tagged date                              : UTC 2019-08-13 10:45:06


悠悠MP4_MP4电影下载_贝比 Baby.2007.1080p.WEBRip.x264-RARBG 1.90GB悠悠MP4_MP4电影下载_贝比 Baby.2007.1080p.WEBRip.x264-RARBG 1.90GB悠悠MP4_MP4电影下载_贝比 Baby.2007.1080p.WEBRip.x264-RARBG 1.90GB


提示:如迅雷下载提示"任务出错"、"因版权无法下载",请尝试【迅雷5】
上传的附件:
最新回复 (0)
返回
本站所有资源均收集自互联网,没有提供影片资源存储, 也未参与录制、上传,若本站收录的资源无意侵犯了您的权益, 请联系邮箱:gogoimgs#gmail.com(#=@)