[2019] [欧美] [其他] [WEB-1080P] 超能小萌怪:永远在一起 Super.Monsters.Furever.Friends.2019.1080p.WEBRip.x264-RARBG 1.12GB

uump4 4月前 86

帖子完整标题:超能小萌怪:永远在一起 Super.Monsters.Furever.Friends.2019.1080p.WEBRip.x264-RARBG 1.12GB


悠悠MP4_MP4电影下载_超能小萌怪:永远在一起 Super.Monsters.Furever.Friends.2019.1080p.WEBRip.x264-RARBG 1.12GB

◎译  名 超能小萌怪:永远在一起
◎片  名 Super Monsters Furever Friends
◎年  代 2019
◎产  地 美国
◎类  别 动画
◎语  言 英语
◎上映日期 2019-04-16(美国)
◎IMDb评分  5.6/10 from 20 users
◎IMDb链接  http://www.imdb.com/title/tt10087988
◎豆瓣评分 0/10 from 0 users
◎豆瓣链接 https://movie.douban.com/subject/33415916/
◎片  长 58分钟
◎主  演 Elyse Maloway
       Vincent Tong
       Erin Mathews
       Andrea Libman
       亚历桑德罗·朱利安尼 Alessandro Juliani
       Nicole Anthony


◎简  介  

  暂无相关剧情介绍

Video
ID                                       : 1
Format                                   : AVC
Format/Info                              : Advanced Video Codec
Format profile                           : [email protected]
Format settings                          : CABAC / 4 Ref Frames
Format settings, CABAC                   : Yes
Format settings, Reference frames        : 4 frames
Codec ID                                 : avc1
Codec ID/Info                            : Advanced Video Coding
Duration                                 : 58 min 42 s
Bit rate                                 : 2 500 kb/s
Width                                    : 1 920 pixels
Height                                   : 1 080 pixels
Display aspect ratio                     : 16:9
Frame rate mode                          : Constant
Frame rate                               : 23.976 (23976/1000) FPS
Color space                              : YUV
Chroma subsampling                       : 4:2:0
Bit depth                                : 8 bits
Scan type                                : Progressive
Bits/(Pixel*Frame)                       : 0.050
Stream size                              : 1.03 GiB (92%)
Writing library                          : x264 core 152 r2851M ba24899
Encoding settings                        : cabac=1 / ref=4 / deblock=1:-1:-1 / analyse=0x3:0x113 / me=umh / subme=9 / psy=1 / psy_rd=1.00:0.15 / mixed_ref=1 / me_range=24 / chroma_me=1 / trellis=2 / 8x8dct=1 / cqm=0 / deadzone=21,11 / fast_pskip=1 / chroma_qp_offset=-3 / threads=16 / lookahead_threads=4 / sliced_threads=0 / nr=0 / decimate=1 / interlaced=0 / bluray_compat=0 / constrained_intra=0 / bframes=3 / b_pyramid=2 / b_adapt=2 / b_bias=0 / direct=3 / weightb=1 / open_gop=0 / weightp=2 / keyint=250 / keyint_min=25 / scenecut=40 / intra_refresh=0 / rc_lookahead=50 / rc=2pass / mbtree=1 / bitrate=2500 / ratetol=1.0 / qcomp=0.60 / qpmin=0 / qpmax=69 / qpstep=4 / cplxblur=20.0 / qblur=0.5 / vbv_maxrate=31250 / vbv_bufsize=31250 / nal_hrd=none / filler=0 / ip_ratio=1.40 / aq=3:1.00
Encoded date                             : UTC 2019-08-13 14:07:57
Tagged date                              : UTC 2019-08-13 14:07:57
Codec configuration box                  : avcC

Audio
ID                                       : 2
Format                                   : AAC LC
Format/Info                              : Advanced Audio Codec Low Complexity
Codec ID                                 : mp4a-40-2
Duration                                 : 58 min 42 s
Duration_LastFrame                       : -11 ms
Bit rate mode                            : Constant
Bit rate                                 : 224 kb/s
Channel(s)                               : 6 channels
Channel layout                           : C L R Ls Rs LFE
Sampling rate                            : 48.0 kHz
Frame rate                               : 46.875 FPS (1024 SPF)
Compression mode                         : Lossy
Stream size                              : 94.1 MiB (8%)
Language                                 : English
Default                                  : Yes
Alternate group                          : 1
Encoded date                             : UTC 2019-08-13 14:07:57
Tagged date                              : UTC 2019-08-13 14:07:57


悠悠MP4_MP4电影下载_超能小萌怪:永远在一起 Super.Monsters.Furever.Friends.2019.1080p.WEBRip.x264-RARBG 1.12GB悠悠MP4_MP4电影下载_超能小萌怪:永远在一起 Super.Monsters.Furever.Friends.2019.1080p.WEBRip.x264-RARBG 1.12GB悠悠MP4_MP4电影下载_超能小萌怪:永远在一起 Super.Monsters.Furever.Friends.2019.1080p.WEBRip.x264-RARBG 1.12GB


提示:如迅雷下载提示"任务出错"、"因版权无法下载",请尝试【迅雷5】
上传的附件:
最新回复 (0)
返回
本站所有资源均收集自互联网,没有提供影片资源存储, 也未参与录制、上传,若本站收录的资源无意侵犯了您的权益, 请联系邮箱:gogoimgs#gmail.com(#=@)