[更早] [其他] [剧情] [BD-1080P] 奥菲斯的遗嘱 Testament.of.Orpheus.1960.1080p.BluRay.x264-GHOULS 5.48GB

uump4 11天前 40

帖子完整标题:奥菲斯的遗嘱 Testament.of.Orpheus.1960.1080p.BluRay.x264-GHOULS 5.48GB


悠悠MP4_MP4电影下载_奥菲斯的遗嘱 Testament.of.Orpheus.1960.1080p.BluRay.x264-GHOULS 5.48GB

◎译  名 奥菲斯的遗嘱 / Testament of Orpheus / The Testament of Orpheus or Don't Ask Me Why / 俄耳甫斯的遗嘱 / 奥菲斯三部曲之三:奥菲斯的遗嘱 / 奥菲的遗言(台)
◎片  名 Le testament d'Orphée, ou ne me demandez pas pourquoi!
◎年  代 1960
◎产  地 法国
◎类  别 剧情 / 传记
◎语  言 法语
◎上映日期 1960-02-18
◎IMDb评分  7.3/10 from 2398 users
◎IMDb链接  http://www.imdb.com/title/tt0054377
◎豆瓣评分 8.3/10 from 1220 users
◎豆瓣链接 https://movie.douban.com/subject/1419169/
◎片  长 Germany: 79 分钟
◎导  演 Jean Cocteau
◎编  剧 Jean Cocteau
◎主  演 Jean Cocteau


◎标  签 法国 | Jean_Cocteau | 让·科克托 | 法国电影 | JeanCocteau | 超现实主义 | 超现实 | 1960s

◎简  介  

  剧情梗概:一位18世纪的诗人通过时间隧道到了一个神秘的地方,他遇到了许多让他死亡又让他重生的事物。可是他还是必须面对死亡的洗礼,他还有什么心愿未了吗?
  考克多的银幕绝唱,可视为他私人日记的公开,展现了艺术家、艺术创作以及艺术梦想之间的互相作用,是他向电影艺术的道别。一位18世纪的诗人通过时间隧道到了一个神秘的地方,他遇到了许多让他死亡又让他重生的事物。可是他还是必须面对死亡的洗礼,他还有什么心愿未了吗?

Video
ID                                       : 1
Format                                   : AVC
Format/Info                              : Advanced Video Codec
Format profile                           : [email protected]
Format settings                          : CABAC / 5 Ref Frames
Format settings, CABAC                   : Yes
Format settings, Reference frames        : 5 frames
Codec ID                                 : V_MPEG4/ISO/AVC
Duration                                 : 1 h 19 min
Bit rate                                 : 9 219 kb/s
Width                                    : 1 488 pixels
Height                                   : 1 080 pixels
Display aspect ratio                     : 1.378
Frame rate mode                          : Constant
Frame rate                               : 24.000 FPS
Color space                              : YUV
Chroma subsampling                       : 4:2:0
Bit depth                                : 8 bits
Scan type                                : Progressive
Bits/(Pixel*Frame)                       : 0.239
Stream size                              : 5.15 GiB (94%)
Writing library                          : x264 core 158 r2984 3759fcb
Encoding settings                        : cabac=1 / ref=5 / deblock=1:-3:-3 / analyse=0x3:0x133 / me=umh / subme=9 / psy=1 / psy_rd=1.00:0.00 / mixed_ref=1 / me_range=24 / chroma_me=1 / trellis=1 / 8x8dct=1 / cqm=0 / deadzone=21,11 / fast_pskip=0 / chroma_qp_offset=-2 / threads=24 / lookahead_threads=4 / sliced_threads=0 / nr=0 / decimate=1 / interlaced=0 / bluray_compat=0 / constrained_intra=0 / bframes=8 / b_pyramid=2 / b_adapt=2 / b_bias=0 / direct=3 / weightb=1 / open_gop=0 / weightp=2 / keyint=250 / keyint_min=24 / scenecut=40 / intra_refresh=0 / rc_lookahead=60 / rc=2pass / mbtree=1 / bitrate=9219 / ratetol=1.0 / qcomp=0.60 / qpmin=0 / qpmax=69 / qpstep=4 / cplxblur=20.0 / qblur=0.5 / vbv_maxrate=62500 / vbv_bufsize=78125 / nal_hrd=none / filler=0 / ip_ratio=1.40 / aq=1:1.00
Default                                  : Yes
Forced                                   : No

Audio
ID                                       : 2
Format                                   : FLAC
Format/Info                              : Free Lossless Audio Codec
Codec ID                                 : A_FLAC
Duration                                 : 1 h 19 min
Bit rate mode                            : Variable
Bit rate                                 : 561 kb/s
Channel(s)                               : 2 channels
Channel layout                           : L R
Sampling rate                            : 48.0 kHz
Frame rate                               : 10.417 FPS (4608 SPF)
Bit depth                                : 24 bits
Compression mode                         : Lossless
Stream size                              : 321 MiB (6%)
Writing library                          : Lavf58.20.100
Language                                 : French
Default                                  : Yes
Forced                                   : No

Text
ID                                       : 3
Format                                   : UTF-8
Codec ID                                 : S_TEXT/UTF8
Codec ID/Info                            : UTF-8 Plain Text
Duration                                 : 1 h 17 min
Bit rate                                 : 33 b/s
Count of elements                        : 733
Stream size                              : 19.4 KiB (0%)
Language                                 : English
Default                                  : Yes
Forced                                   : No

Menu
00:00:00.000                             : en:Chapter 01
00:07:58.750                             : en:Chapter 02
00:15:56.375                             : en:Chapter 03
00:24:00.000                             : en:Chapter 04
00:31:28.875                             : en:Chapter 05
00:40:11.000                             : en:Chapter 06
00:53:43.708                             : en:Chapter 07
01:00:16.833                             : en:Chapter 08
01:09:05.042                             : en:Chapter 09


悠悠MP4_MP4电影下载_奥菲斯的遗嘱 Testament.of.Orpheus.1960.1080p.BluRay.x264-GHOULS 5.48GB


提示:如迅雷下载提示"任务出错"、"因版权无法下载",请尝试【迅雷5】
上传的附件:
最新回复 (0)
返回
本站所有资源均收集自互联网,没有提供影片资源存储, 也未参与录制、上传,若本站收录的资源无意侵犯了您的权益, 请联系邮箱:gogoimgs#gmail.com(#=@)