[2019] [欧美] [喜剧] [BD-1080P] 蓬松哥:我不是胖…我是福相 Gabriel.Iglesias.Im.Not.Fat.Im.Fluffy.2009.1080p.BluRay.x264-aAF 4

uump4 5天前 60

帖子完整标题:蓬松哥:我不是胖…我是福相 Gabriel.Iglesias.Im.Not.Fat.Im.Fluffy.2009.1080p.BluRay.x264-aAF 4.37GB


悠悠MP4_MP4电影下载_蓬松哥:我不是胖…我是福相 Gabriel.Iglesias.Im.Not.Fat.Im.Fluffy.2009.1080p.BluRay.x264-aAF 4

◎译  名 蓬松哥:我不是胖…我是福相
◎片  名 Gabriel Iglesias: I'm Not Fat... I'm Fluffy
◎产  地 美国
◎类  别 喜剧 / 脱口秀
◎语  言 英语
◎上映日期 2009
◎IMDb评分  8.1/10 from 2113 users
◎IMDb链接  http://www.imdb.com/title/tt1554966
◎豆瓣评分 9.1/10 from 232 users
◎豆瓣链接 https://movie.douban.com/subject/5244254/
◎主  演 Gabriel Iglesias


◎标  签 脱口秀 | Stand-up | 美国 | GabrielIglesias | 喜剧 | stand-up | Stand-Up | Stand-Up.Comedy

◎简  介  

  暂无相关剧情介绍

Video
ID                                       : 1
Format                                   : AVC
Format/Info                              : Advanced Video Codec
Format profile                           : [email protected]
Format settings, CABAC                   : Yes
Format settings, ReFrames                : 4 frames
Codec ID                                 : V_MPEG4/ISO/AVC
Duration                                 : 1h 8mn
Bit rate                                 : 8 434 Kbps
Width                                    : 1 920 pixels
Height                                   : 1 080 pixels
Display aspect ratio                     : 16:9
Frame rate mode                          : Constant
Frame rate                               : 29.970 (30000/1001) fps
Color space                              : YUV
Chroma subsampling                       : 4:2:0
Bit depth                                : 8 bits
Scan type                                : Progressive
Bits/(Pixel*Frame)                       : 0.136
Stream size                              : 3.98 GiB (91%)
Writing library                          : x264 core 112 r1867 22bfd31
Encoding settings                        : cabac=1 / ref=4 / deblock=1:0:0 / analyse=0x3:0x133 / me=umh / subme=8 / psy=1 / psy_rd=1.00:0.00 / mixed_ref=1 / me_range=16 / chroma_me=1 / trellis=1 / 8x8dct=1 / cqm=0 / deadzone=21,11 / fast_pskip=0 / chroma_qp_offset=-2 / threads=12 / sliced_threads=0 / nr=0 / decimate=1 / interlaced=0 / constrained_intra=0 / bframes=3 / b_pyramid=2 / b_adapt=1 / b_bias=0 / direct=1 / weightb=1 / open_gop=0 / weightp=2 / keyint=240 / keyint_min=24 / scenecut=40 / intra_refresh=0 / rc_lookahead=40 / rc=2pass / mbtree=1 / bitrate=8434 / ratetol=1.0 / qcomp=0.60 / qpmin=0 / qpmax=51 / qpstep=4 / cplxblur=20.0 / qblur=0.5 / ip_ratio=1.40 / aq=1:1.00
Language                                 : English
Default                                  : No
Forced                                   : No

Audio
ID                                       : 2
Format                                   : AC-3
Format/Info                              : Audio Coding 3
Mode extension                           : CM (complete main)
Format settings, Endianness              : Big
Codec ID                                 : A_AC3
Duration                                 : 1h 8mn
Bit rate mode                            : Constant
Bit rate                                 : 640 Kbps
Channel(s)                               : 6 channels
Channel positions                        : Front: L C R, Side: L R, LFE
Sampling rate                            : 48.0 KHz
Frame rate                               : 31.250 fps (1536 spf)
Compression mode                         : Lossy
Stream size                              : 316 MiB (7%)
Default                                  : Yes
Forced                                   : No

Text
ID                                       : 3
Format                                   : UTF-8
Codec ID                                 : S_TEXT/UTF8
Codec ID/Info                            : UTF-8 Plain Text
Default                                  : Yes
Forced                                   : No


悠悠MP4_MP4电影下载_蓬松哥:我不是胖…我是福相 Gabriel.Iglesias.Im.Not.Fat.Im.Fluffy.2009.1080p.BluRay.x264-aAF 4悠悠MP4_MP4电影下载_蓬松哥:我不是胖…我是福相 Gabriel.Iglesias.Im.Not.Fat.Im.Fluffy.2009.1080p.BluRay.x264-aAF 4悠悠MP4_MP4电影下载_蓬松哥:我不是胖…我是福相 Gabriel.Iglesias.Im.Not.Fat.Im.Fluffy.2009.1080p.BluRay.x264-aAF 4悠悠MP4_MP4电影下载_蓬松哥:我不是胖…我是福相 Gabriel.Iglesias.Im.Not.Fat.Im.Fluffy.2009.1080p.BluRay.x264-aAF 4悠悠MP4_MP4电影下载_蓬松哥:我不是胖…我是福相 Gabriel.Iglesias.Im.Not.Fat.Im.Fluffy.2009.1080p.BluRay.x264-aAF 4悠悠MP4_MP4电影下载_蓬松哥:我不是胖…我是福相 Gabriel.Iglesias.Im.Not.Fat.Im.Fluffy.2009.1080p.BluRay.x264-aAF 4


提示:如迅雷下载提示"任务出错"、"因版权无法下载",请尝试【迅雷5】
上传的附件:
最新回复 (0)
返回
本站所有资源均收集自互联网,没有提供影片资源存储, 也未参与录制、上传,若本站收录的资源无意侵犯了您的权益, 请联系邮箱:gogoimgs#gmail.com(#=@)