[2008] [欧美] [其他] [BD-1080P] 洛夫克拉夫特:未知的恐惧 Lovecraft.Fear.of.the.Unknown.2008.1080p.BluRay.x264-PUZZLE 8.75GB

uump4 1月前 66

帖子完整标题:洛夫克拉夫特:未知的恐惧 Lovecraft.Fear.of.the.Unknown.2008.1080p.BluRay.x264-PUZZLE 8.75GB


悠悠MP4_MP4电影下载_洛夫克拉夫特:未知的恐惧 Lovecraft.Fear.of.the.Unknown.2008.1080p.BluRay.x264-PUZZLE 8.75GB

◎译  名 洛夫克拉夫特:未知的恐惧
◎片  名 Lovecraft: Fear of the Unknown
◎年  代 2008
◎产  地 美国
◎类  别 纪录片
◎语  言 英语
◎上映日期 2008-07-24(美国)
◎IMDb评分 7.2/10 from 1331 users
◎IMDb链接 http://www.imdb.com/title/tt1261900
◎豆瓣评分 8.3/10 from 880 users
◎豆瓣链接 https://movie.douban.com/subject/3431242/
◎片  长 90分钟
◎导  演 Frank H. Woodward
◎编  剧 Frank H. Woodward
◎主  演 罗宾·阿特金·唐斯 Robin Atkin Downes
      尼尔·盖曼 Neil Gaiman
      Peter Straub
      吉尔莫·德尔·托罗 Guillermo del Toro
      Ramsey Campbell
      斯图尔特·戈登 Stuart Gordon
      Caitlin R. Kiernan
      S.T. Joshi
      约翰·卡朋特 John Carpenter
      Robert M. Price
      Andrew Migliore
      Hunter Paterra
      Amber Griffin
      Mark Henry
      Isaac Bradley


◎标  签 纪录片 | 克苏鲁神话 | 美国 | Lovecraft | 克苏鲁 | 奇幻 | 2008 | 人物

◎简  介

  Lovecraft's Fear of the Unknown这部纪录片向观众们展示了克苏鲁神话背后的生活、工作和思想。剧本和导演为Frank H. Woodward。制片人为William Janczewski, James B. Myers和Woodward。本片荣获2008年Comic-Con国际独立电影节最佳纪录片奖。
  关于克苏鲁神话
  克苏鲁神话(Cthulhu Mythos)是以霍华德·菲利普·洛夫克拉夫特的小说世界为基础,由奥古斯特·威廉·德雷斯整理完善、诸多作者共同创造的架空神话体系。克苏鲁并非此架空世界中的主神,虽然它是在地球上很常见的信仰,这些神话的题材可能来自世界各地神话传说的再诠释(如北美传说中的雪怪温迪戈(Wendigo))。只要是接受洛夫克拉夫特小说的概念而衍伸创作的小说都可以纳入此神话的一部分,所以此神话系统至今还在扩展,仍有许多新的创作。
Video
ID : 2
Format : AVC
Format/Info : Advanced Video Codec
Format profile : [email protected]
Format settings, CABAC : Yes
Format settings, ReFrames : 4 frames
Codec ID : V_MPEG4/ISO/AVC
Duration : 1h 29mn
Bit rate : 13.6 Mbps
Width : 1 920 pixels
Height : 1 080 pixels
Display aspect ratio : 16:9
Frame rate mode : Constant
Frame rate : 23.976 fps
Color space : YUV
Chroma subsampling : 4:2:0
Bit depth : 8 bits
Scan type : Progressive
Bits/(Pixel*Frame) : 0.273
Stream size : 8.29 GiB (95%)
Writing library : x264 core 104 r1698 c41b8f0
Encoding settings : cabac=1 / ref=4 / deblock=1:0:0 / analyse=0x3:0x133 / me=umh / subme=7 / psy=1 / psy_rd=1.00:0.00 / mixed_ref=1 / me_range=16 / chroma_me=1 / trellis=1 / 8x8dct=1 / cqm=0 / deadzone=21,11 / fast_pskip=0 / chroma_qp_offset=-2 / threads=6 / sliced_threads=0 / nr=0 / decimate=0 / interlaced=0 / constrained_intra=0 / bframes=3 / b_pyramid=2 / b_adapt=1 / b_bias=0 / direct=1 / weightb=1 / open_gop=0 / weightp=2 / keyint=250 / keyint_min=23 / scenecut=40 / intra_refresh=0 / rc_lookahead=40 / rc=2pass / mbtree=1 / bitrate=13561 / ratetol=1.0 / qcomp=0.60 / qpmin=10 / qpmax=51 / qpstep=4 / cplxblur=20.0 / qblur=0.5 / ip_ratio=1.40 / aq=1:1.00
Language : English
Default : No
Forced : No

Audio
ID : 1
Format : AC-3
Format/Info : Audio Coding 3
Mode extension : CM (complete main)
Format settings, Endianness : Big
Codec ID : A_AC3
Duration : 1h 29mn
Bit rate mode : Constant
Bit rate : 448 Kbps
Channel(s) : 2 channels
Channel positions : Front: L R
Sampling rate : 48.0 KHz
Frame rate : 31.250 fps (1536 spf)
Compression mode : Lossy
Stream size : 286 MiB (3%)
Language : English
Default : Yes
Forced : No

悠悠MP4_MP4电影下载_洛夫克拉夫特:未知的恐惧 Lovecraft.Fear.of.the.Unknown.2008.1080p.BluRay.x264-PUZZLE 8.75GB悠悠MP4_MP4电影下载_洛夫克拉夫特:未知的恐惧 Lovecraft.Fear.of.the.Unknown.2008.1080p.BluRay.x264-PUZZLE 8.75GB悠悠MP4_MP4电影下载_洛夫克拉夫特:未知的恐惧 Lovecraft.Fear.of.the.Unknown.2008.1080p.BluRay.x264-PUZZLE 8.75GB悠悠MP4_MP4电影下载_洛夫克拉夫特:未知的恐惧 Lovecraft.Fear.of.the.Unknown.2008.1080p.BluRay.x264-PUZZLE 8.75GB悠悠MP4_MP4电影下载_洛夫克拉夫特:未知的恐惧 Lovecraft.Fear.of.the.Unknown.2008.1080p.BluRay.x264-PUZZLE 8.75GB悠悠MP4_MP4电影下载_洛夫克拉夫特:未知的恐惧 Lovecraft.Fear.of.the.Unknown.2008.1080p.BluRay.x264-PUZZLE 8.75GB


提示:如迅雷下载提示"任务出错"、"因版权无法下载",请尝试【迅雷5】
上传的附件:
最新回复 (0)
返回
本站所有资源均收集自互联网,没有提供影片资源存储, 也未参与录制、上传,若本站收录的资源无意侵犯了您的权益, 请联系邮箱:gogoimgs#gmail.com(#=@)