[2013] [欧美] [其他] [BD-1080P] 什么是电影? What.Is.Cinema.2013.1080p.BluRay.x264-BiPOLAR 6.57GB

uump4 3月前 76

帖子完整标题:什么是电影? What.Is.Cinema.2013.1080p.BluRay.x264-BiPOLAR 6.57GB


悠悠MP4_MP4电影下载_什么是电影? What.Is.Cinema.2013.1080p.BluRay.x264-BiPOLAR 6.57GB

◎译  名 什么是电影? / Qu'est ce que le cinéma?
◎片  名 What Is Cinema?
◎年  代 2013
◎产  地 美国
◎类  别 纪录片
◎语  言 英语
◎上映日期 2013-06-06
◎IMDb评分 6.1/10 from 281 users
◎IMDb链接 http://www.imdb.com/title/tt3016642
◎豆瓣评分 6.3/10 from 44 users
◎豆瓣链接 https://movie.douban.com/subject/25706976/
◎片  长 83分钟
◎导  演 Chuck Workman
◎主  演 大卫·林奇 David Lynch
      香特尔·阿克曼 Chantal Akerman
      迈克·李 Mike Leigh
      乔纳斯·梅卡斯 Jonas Mekas
      罗伯特·奥特曼 Robert Altman
      罗伯特·布列松 Robert Bresson
      科斯塔-加夫拉斯 Costa-Gavras
      罗伯·爱泼斯坦 Rob Epstein
      詹姆斯·弗兰科 James Franco
      阿尔弗雷德·希区柯克 Alfred Hitchcock
      肯·雅各布斯 Ken Jacobs
      伊冯?雷奈尔 Yvonne Rainer
      比尔·维奥拉 Bill Viola
      凯莉·雷查德 Kelly Reichardt


◎标  签 纪录片 | 美国 | Documentary | 电影理论 | 2013 | 纪录 | 很想看 | 2010s

◎简  介

  Featuring interviews with the likes of Hitchcock, Kurosawa, Robert Bresson and David Lynch, What is Cinema? is documentarian Chuck Workman’s engrossing visual essay about mastery of cinematic form. Our world premiere will be followed by a live conversation with Workman.
Video
ID : 1
Format : AVC
Format/Info : Advanced Video Codec
Format profile : [email protected]
Format settings, CABAC : Yes
Format settings, ReFrames : 4 frames
Codec ID : V_MPEG4/ISO/AVC
Duration : 1h 17mn
Bit rate : 10.6 Mbps
Width : 1 920 pixels
Height : 1 080 pixels
Display aspect ratio : 16:9
Frame rate mode : Constant
Frame rate : 23.976 (24000/1001) fps
Color space : YUV
Chroma subsampling : 4:2:0
Bit depth : 8 bits
Scan type : Progressive
Bits/(Pixel*Frame) : 0.213
Stream size : 5.74 GiB (87%)
Writing library : x264 core 148 r2744 b97ae06
Encoding settings : cabac=1 / ref=4 / deblock=1:-3:-3 / analyse=0x3:0x133 / me=umh / subme=9 / psy=1 / psy_rd=1.00:0.00 / mixed_ref=1 / me_range=16 / chroma_me=1 / trellis=2 / 8x8dct=1 / cqm=0 / deadzone=21,11 / fast_pskip=0 / chroma_qp_offset=-2 / threads=34 / lookahead_threads=2 / sliced_threads=0 / nr=0 / decimate=1 / interlaced=0 / bluray_compat=0 / constrained_intra=0 / bframes=3 / b_pyramid=2 / b_adapt=1 / b_bias=0 / direct=3 / weightb=1 / open_gop=0 / weightp=2 / keyint=250 / keyint_min=23 / scenecut=40 / intra_refresh=0 / rc_lookahead=50 / rc=2pass / mbtree=1 / bitrate=10571 / ratetol=1.0 / qcomp=0.60 / qpmin=0 / qpmax=69 / qpstep=4 / cplxblur=20.0 / qblur=0.5 / ip_ratio=1.40 / aq=1:1.00
Language : English
Default : Yes
Forced : No

Audio
ID : 2
Format : DTS
Format/Info : Digital Theater Systems
Mode : 16
Format settings, Endianness : Big
Codec ID : A_DTS
Duration : 1h 17mn
Bit rate mode : Constant
Bit rate : 1 509 Kbps
Channel(s) : 6 channels
Channel positions : Front: L C R, Side: L R, LFE
Sampling rate : 48.0 KHz
Frame rate : 93.750 fps (512 spf)
Bit depth : 24 bits
Compression mode : Lossy
Stream size : 839 MiB (12%)
Language : English
Default : Yes
Forced : No

Menu
00:00:00.000 : en:00:00:00.000
00:05:28.286 : en:00:05:28.286
00:12:23.826 : en:00:12:23.826
00:20:41.532 : en:00:20:41.532
00:32:23.275 : en:00:32:23.275
00:40:48.780 : en:00:40:48.780
00:50:17.556 : en:00:50:17.556
00:57:58.850 : en:00:57:58.850
01:08:40.116 : en:01:08:40.116
01:12:48.531 : en:01:12:48.531

悠悠MP4_MP4电影下载_什么是电影? What.Is.Cinema.2013.1080p.BluRay.x264-BiPOLAR 6.57GB


提示:如迅雷下载提示"任务出错"、"因版权无法下载",请尝试【迅雷5】
上传的附件:
最新回复 (0)
返回
本站所有资源均收集自互联网,没有提供影片资源存储, 也未参与录制、上传,若本站收录的资源无意侵犯了您的权益, 请联系邮箱:gogoimgs#gmail.com(#=@)