[2009] [欧美] [其他] [BD-1080P] 当你觉得陌生/当你还是陌生人时 When.Youre.Strange.A.Film.About.The.Doors.2009.1080p.BluRay.x264

uump4 1月前 41

帖子完整标题:当你觉得陌生/当你还是陌生人时 When.Youre.Strange.A.Film.About.The.Doors.2009.1080p.BluRay.x264-SEMTEX 8.72GB


悠悠MP4_MP4电影下载_当你觉得陌生/当你还是陌生人时 When.Youre.Strange.A.Film.About.The.Doors.2009.1080p.BluRay.x264

◎译  名 当你觉得陌生 / 当你还是陌生人时
◎片  名 When You're Strange
◎年  代 2009
◎产  地 美国
◎类  别 纪录片 / 音乐
◎语  言 英语
◎上映日期 2009
◎IMDb评分  7.7/10 from 8657 users
◎IMDb链接  http://www.imdb.com/title/tt1333667
◎豆瓣评分 8.6/10 from 1022 users
◎豆瓣链接 https://movie.douban.com/subject/4007879/
◎片  长 86 分钟
◎导  演 Tom DiCillo
◎主  演 John Densmore
       Robby Krieger
       Ray Manzarek
       Jim Morrison


◎标  签 纪录片 | TheDoors | 摇滚 | 美国 | 音乐 | JohnnyDepp | Documentary | 美国电影

◎简  介  

  A chronological look at The Doors, focusing on lead singer, Jim Morrison (1943-1971), from the formation of the band in 1965, it's first gigs, and first album, to Morrison's death, after years of alcohol and drug use. Along the journey, we see archival footage of rehearsals, performances, and private moments including a Miami concert resulting in Morrison's arrest and trial for indecency. His love of the spotlight, his desire to be a poet, and his alcohol-fueled mood swings lead to a back and forth between public and private desires, successes, and failures. The band's music plays throughout.

Video
ID                                       : 1
Format                                   : AVC
Format/Info                              : Advanced Video Codec
Format profile                           : [email protected]
Format settings, CABAC                   : Yes
Format settings, ReFrames                : 4 frames
Codec ID                                 : V_MPEG4/ISO/AVC
Duration                                 : 1h 25mn
Bit rate mode                            : Variable
Bit rate                                 : 13.2 Mbps
Maximum bit rate                         : 25.0 Mbps
Width                                    : 1 920 pixels
Height                                   : 1 080 pixels
Display aspect ratio                     : 16:9
Frame rate mode                          : Constant
Frame rate                               : 23.976 (24000/1001) fps
Color space                              : YUV
Chroma subsampling                       : 4:2:0
Bit depth                                : 8 bits
Scan type                                : Progressive
Bits/(Pixel*Frame)                       : 0.265
Stream size                              : 7.65 GiB (88%)
Writing library                          : x264 core 100 r1659 57b2e56
Encoding settings                        : cabac=1 / ref=4 / deblock=1:0:0 / analyse=0x3:0x133 / me=umh / subme=7 / psy=1 / psy_rd=1.00:0.00 / mixed_ref=1 / me_range=16 / chroma_me=1 / trellis=1 / 8x8dct=1 / cqm=0 / deadzone=21,11 / fast_pskip=1 / chroma_qp_offset=-2 / threads=12 / sliced_threads=0 / nr=0 / decimate=1 / interlaced=0 / constrained_intra=0 / bframes=4 / b_pyramid=0 / b_adapt=1 / b_bias=0 / direct=1 / weightb=1 / open_gop=0 / weightp=2 / keyint=240 / keyint_min=24 / scenecut=40 / intra_refresh=0 / rc_lookahead=40 / rc=2pass / mbtree=1 / bitrate=13155 / ratetol=1.0 / qcomp=0.60 / qpmin=10 / qpmax=51 / qpstep=4 / cplxblur=20.0 / qblur=0.5 / vbv_maxrate=25000 / vbv_bufsize=25000 / ip_ratio=1.40 / aq=1:1.00 / nal_hrd=vbr
Default                                  : Yes
Forced                                   : No

Audio
ID                                       : 2
Format                                   : DTS
Format/Info                              : Digital Theater Systems
Mode                                     : 16
Format settings, Endianness              : Big
Codec ID                                 : A_DTS
Duration                                 : 1h 25mn
Bit rate mode                            : Constant
Bit rate                                 : 1 509 Kbps
Channel(s)                               : 6 channels
Channel positions                        : Front: L C R, Side: L R, LFE
Sampling rate                            : 48.0 KHz
Frame rate                               : 93.750 fps (512 spf)
Bit depth                                : 24 bits
Compression mode                         : Lossy
Stream size                              : 922 MiB (10%)
Language                                 : English
Default                                  : Yes
Forced                                   : No


悠悠MP4_MP4电影下载_当你觉得陌生/当你还是陌生人时 When.Youre.Strange.A.Film.About.The.Doors.2009.1080p.BluRay.x264悠悠MP4_MP4电影下载_当你觉得陌生/当你还是陌生人时 When.Youre.Strange.A.Film.About.The.Doors.2009.1080p.BluRay.x264悠悠MP4_MP4电影下载_当你觉得陌生/当你还是陌生人时 When.Youre.Strange.A.Film.About.The.Doors.2009.1080p.BluRay.x264悠悠MP4_MP4电影下载_当你觉得陌生/当你还是陌生人时 When.Youre.Strange.A.Film.About.The.Doors.2009.1080p.BluRay.x264悠悠MP4_MP4电影下载_当你觉得陌生/当你还是陌生人时 When.Youre.Strange.A.Film.About.The.Doors.2009.1080p.BluRay.x264悠悠MP4_MP4电影下载_当你觉得陌生/当你还是陌生人时 When.Youre.Strange.A.Film.About.The.Doors.2009.1080p.BluRay.x264


提示:如迅雷下载提示"任务出错"、"因版权无法下载",请尝试【迅雷5】
上传的附件:
最新回复 (0)
返回
本站所有资源均收集自互联网,没有提供影片资源存储, 也未参与录制、上传,若本站收录的资源无意侵犯了您的权益, 请联系邮箱:gogoimgs#gmail.com(#=@)