[更早] [欧美] [喜剧] [BD-1080P] 神奇小镇 Magic.Town.1947.1080p.BluRay.x264-HANDJOB 8.12GB

uump4 3月前 61

帖子完整标题:神奇小镇 Magic.Town.1947.1080p.BluRay.x264-HANDJOB 8.12GB


悠悠MP4_MP4电影下载_神奇小镇 Magic.Town.1947.1080p.BluRay.x264-HANDJOB 8.12GB

◎译  名 神奇小镇
◎片  名 Magic Town
◎年  代 1947
◎产  地 美国
◎类  别 喜剧 / 爱情
◎语  言 英语
◎上映日期 1947-10-07
◎IMDb评分  6.5/10 from 1325 users
◎IMDb链接  http://www.imdb.com/title/tt0039595
◎豆瓣评分 6.8/10 from 57 users
◎豆瓣链接 https://movie.douban.com/subject/3782475/
◎片  长 103 分钟
◎导  演 威廉·A·韦尔曼 William A. Wellman
◎编  剧 Robert Riskin (story) / Joseph Krumgold (story)
◎主  演 詹姆斯·斯图尔特 James Stewart
       简·怀曼 Jane Wyman


◎标  签 JamesStewart | 美国 | 1940s | 詹姆斯·斯图尔特 | 美国电影 | 喜剧 | 1947 | 威廉·A·韦尔曼

◎简  介  

  暂无相关剧情介绍

Video
ID                                       : 2
Format                                   : AVC
Format/Info                              : Advanced Video Codec
Format profile                           : [email protected]
Format settings                          : CABAC / 5 Ref Frames
Format settings, CABAC                   : Yes
Format settings, Reference frames        : 5 frames
Codec ID                                 : V_MPEG4/ISO/AVC
Duration                                 : 1 h 43 min
Bit rate                                 : 11.2 Mb/s
Width                                    : 1 478 pixels
Height                                   : 1 080 pixels
Display aspect ratio                     : 4:3
Frame rate mode                          : Constant
Frame rate                               : 23.976 (24000/1001) FPS
Color space                              : YUV
Chroma subsampling                       : 4:2:0
Bit depth                                : 8 bits
Scan type                                : Progressive
Bits/(Pixel*Frame)                       : 0.291
Stream size                              : 8.03 GiB (99%)
Writing library                          : x264 core 157 r2935 545de2f
Encoding settings                        : cabac=1 / ref=5 / deblock=1:-3:-3 / analyse=0x3:0x133 / me=umh / subme=10 / psy=1 / psy_rd=1.00:0.00 / mixed_ref=1 / me_range=32 / chroma_me=1 / trellis=2 / 8x8dct=1 / cqm=0 / deadzone=21,11 / fast_pskip=0 / chroma_qp_offset=-2 / threads=18 / lookahead_threads=4 / sliced_threads=0 / nr=0 / decimate=0 / interlaced=0 / bluray_compat=0 / constrained_intra=0 / bframes=16 / b_pyramid=2 / b_adapt=2 / b_bias=0 / direct=3 / weightb=1 / open_gop=0 / weightp=2 / keyint=240 / keyint_min=24 / scenecut=40 / intra_refresh=0 / rc_lookahead=60 / rc=crf / mbtree=0 / crf=17.5 / qcomp=0.60 / qpmin=0 / qpmax=69 / qpstep=4 / vbv_maxrate=62500 / vbv_bufsize=78125 / crf_max=0.0 / nal_hrd=none / filler=0 / ip_ratio=1.40 / pb_ratio=1.30 / aq=2:1.00
Default                                  : Yes
Forced                                   : No
Color range                              : Limited
Color primaries                          : BT.709
Transfer characteristics                 : BT.709
Matrix coefficients                      : BT.709

Audio
ID                                       : 1
Format                                   : AAC LC
Format/Info                              : Advanced Audio Codec Low Complexity
Codec ID                                 : A_AAC-2
Duration                                 : 1 h 43 min
Bit rate                                 : 115 kb/s
Channel(s)                               : 1 channel
Channel layout                           : C
Sampling rate                            : 48.0 kHz
Frame rate                               : 46.875 FPS (1024 SPF)
Compression mode                         : Lossy
Stream size                              : 84.7 MiB (1%)
Language                                 : English
Default                                  : Yes
Forced                                   : No

Menu
00:00:00.000                             : :Chapter 1
00:14:45.718                             : :Chapter 2
00:34:54.384                             : :Chapter 3
00:51:26.417                             : :Chapter 4
01:09:11.314                             : :Chapter 5
01:26:21.093                             : :Chapter 6


悠悠MP4_MP4电影下载_神奇小镇 Magic.Town.1947.1080p.BluRay.x264-HANDJOB 8.12GB悠悠MP4_MP4电影下载_神奇小镇 Magic.Town.1947.1080p.BluRay.x264-HANDJOB 8.12GB悠悠MP4_MP4电影下载_神奇小镇 Magic.Town.1947.1080p.BluRay.x264-HANDJOB 8.12GB


提示:如迅雷下载提示"任务出错"、"因版权无法下载",请尝试【迅雷5】
上传的附件:
最新回复 (0)
返回
本站所有资源均收集自互联网,没有提供影片资源存储, 也未参与录制、上传,若本站收录的资源无意侵犯了您的权益, 请联系邮箱:gogoimgs#gmail.com(#=@)