[2019] [欧美] [恐怖] [WEB-1080P] 香蕉劈裂 The.Banana.Splits.Movie.2019.1080p.WEB-DL.DD5.1.H264-FGT 3.49GB

uump4 11天前 102

帖子完整标题:香蕉劈裂 The.Banana.Splits.Movie.2019.1080p.WEB-DL.DD5.1.H264-FGT 3.49GB


悠悠MP4_MP4电影下载_香蕉劈裂 The.Banana.Splits.Movie.2019.1080p.WEB-DL.DD5.1.H264-FGT 3.49GB

◎译  名 香蕉劈裂
◎片  名 The Banana Splits
◎年  代 2019
◎产  地 美国
◎类  别 恐怖
◎语  言 英语
◎IMDb评分  5.6/10 from 25 users
◎IMDb链接  http://www.imdb.com/title/tt9831136
◎豆瓣评分 0/10 from 0 users
◎豆瓣链接 https://movie.douban.com/subject/33418724/
◎导  演 丹尼什卡·埃斯特哈奇 Danishka Esterhazy
◎编  剧 Jed Elinoff / Scott Thomas
◎主  演 Dani Kind
       Finlay Wojtak-Hissong
       Romeo Carere
       史蒂夫·隆德 Steve Lund
       Maria Nash
       莎拉·坎宁 Sara Canning
       塞莉纳·马丁 Celina Martin
       Kiroshan Naidoo
       Daniel Fox
       Lia Sachs
       Jenna Saras
       Lily Spangenberg
       Vash Singh


◎简  介  

  暂无相关剧情介绍

Video
ID                                       : 1
Format                                   : AVC
Format/Info                              : Advanced Video Codec
Format profile                           : [email protected]
Format settings                          : CABAC / 4 Ref Frames
Format settings, CABAC                   : Yes
Format settings, Reference frames        : 4 frames
Codec ID                                 : V_MPEG4/ISO/AVC
Duration                                 : 1 h 29 min
Bit rate                                 : 5 199 kb/s
Width                                    : 1 920 pixels
Height                                   : 1 078 pixels
Display aspect ratio                     : 16:9
Frame rate mode                          : Constant
Frame rate                               : 23.976 (24000/1001) FPS
Color space                              : YUV
Chroma subsampling                       : 4:2:0
Bit depth                                : 8 bits
Scan type                                : Progressive
Bits/(Pixel*Frame)                       : 0.105
Stream size                              : 3.25 GiB (93%)
Title                                    : The.Banana.Splits.Movie.2019.1080p.WEB-DL.DD5.1.H264-FGT
Language                                 : English
Default                                  : Yes
Forced                                   : No
Color range                              : Limited
Color primaries                          : BT.709
Transfer characteristics                 : BT.709
Matrix coefficients                      : BT.709

Audio
ID                                       : 2
Format                                   : AC-3
Format/Info                              : Audio Coding 3
Commercial name                          : Dolby Digital
Codec ID                                 : A_AC3
Duration                                 : 1 h 29 min
Bit rate mode                            : Constant
Bit rate                                 : 384 kb/s
Channel(s)                               : 6 channels
Channel layout                           : L R C LFE Ls Rs
Sampling rate                            : 48.0 kHz
Frame rate                               : 31.250 FPS (1536 SPF)
Bit depth                                : 16 bits
Compression mode                         : Lossy
Stream size                              : 246 MiB (7%)
Title                                    : The.Banana.Splits.Movie.2019.1080p.WEB-DL.DD5.1.H264-FGT
Language                                 : English
Service kind                             : Complete Main
Default                                  : Yes
Forced                                   : No

Text #1
ID                                       : 3
Format                                   : UTF-8
Codec ID                                 : S_TEXT/UTF8
Codec ID/Info                            : UTF-8 Plain Text
Duration                                 : 1 h 26 min
Bit rate                                 : 47 b/s
Count of elements                        : 1045
Stream size                              : 29.9 KiB (0%)
Language                                 : English
Default                                  : Yes
Forced                                   : No

Text #2
ID                                       : 4
Format                                   : UTF-8
Codec ID                                 : S_TEXT/UTF8
Codec ID/Info                            : UTF-8 Plain Text
Duration                                 : 1 h 27 min
Bit rate                                 : 53 b/s
Count of elements                        : 1309
Stream size                              : 34.2 KiB (0%)
Title                                    : SDH
Language                                 : English
Default                                  : No
Forced                                   : No

Menu
00:00:00.000                             : en:1
00:09:25.000                             : en:2
00:18:15.000                             : en:3
00:25:47.000                             : en:4
00:36:59.000                             : en:5
00:42:53.000                             : en:6
00:52:06.000                             : en:7
01:02:03.000                             : en:8
01:11:23.000                             : en:9
01:20:56.000                             : en:10
01:25:41.000                             : en:11


悠悠MP4_MP4电影下载_香蕉劈裂 The.Banana.Splits.Movie.2019.1080p.WEB-DL.DD5.1.H264-FGT 3.49GB悠悠MP4_MP4电影下载_香蕉劈裂 The.Banana.Splits.Movie.2019.1080p.WEB-DL.DD5.1.H264-FGT 3.49GB悠悠MP4_MP4电影下载_香蕉劈裂 The.Banana.Splits.Movie.2019.1080p.WEB-DL.DD5.1.H264-FGT 3.49GB


提示:如迅雷下载提示"任务出错"、"因版权无法下载",请尝试【迅雷5】
上传的附件:
最新回复 (0)
返回
本站所有资源均收集自互联网,没有提供影片资源存储, 也未参与录制、上传,若本站收录的资源无意侵犯了您的权益, 请联系邮箱:gogoimgs#gmail.com(#=@)