[2019] [欧美] [喜剧] [WEB-1080P] 爱宠大机密2/Pet Pet当家2 The.Secret.Life.of.Pets.2.2019.1080p.WEB-DL.DD5.1.H264-FGT 3.3

uump4 11天前 133

帖子完整标题:爱宠大机密2/Pet Pet当家2 The.Secret.Life.of.Pets.2.2019.1080p.WEB-DL.DD5.1.H264-FGT 3.32GB


悠悠MP4_MP4电影下载_爱宠大机密2/Pet Pet当家2 The.Secret.Life.of.Pets.2.2019.1080p.WEB-DL.DD5.1.H264-FGT 3.3

◎译  名 爱宠大机密2 / Pet Pet当家2(港) / 宠物当家2(台) / 宠物的秘密生活2
◎片  名 The Secret Life of Pets 2
◎年  代 2019
◎产  地 美国
◎类  别 喜剧 / 动画 / 冒险
◎语  言 英语
◎上映日期 2019-06-07(美国) / 2019-07-05(中国大陆)
◎IMDb评分  6.5/10 from 12078 users
◎IMDb链接  http://www.imdb.com/title/tt5113040
◎豆瓣评分 7.2/10 from 35524 users
◎豆瓣链接 https://movie.douban.com/subject/26848167/
◎片  长 86分钟
◎导  演 克里斯·雷纳德 Chris Renaud
◎编  剧 布莱恩·林奇 Brian Lynch
◎主  演 帕顿·奥斯瓦尔特 Patton Oswalt
       凯文·哈特 Kevin Hart
       哈里森·福特 Harrison Ford
       艾瑞克·斯通斯崔特 Eric Stonestreet
       珍妮·斯蕾特 Jenny Slate
       蒂凡尼·哈迪斯 Tiffany Haddish
       蕾克·贝尔 Lake Bell
       达纳·卡维 Dana Carvey
       鲍比·莫尼汉 Bobby Moynihan
       汉尼拔·布勒斯 Hannibal Buress
       克里斯·雷纳德 Chris Renaud
       艾丽·坎伯尔 Ellie Kemper
       皮特·霍尔姆斯 Pete Holmes
       尼克·克罗尔 Nick Kroll
       肖恩·吉布朗尼 Sean Giambrone
       梅雷迪斯·萨拉格尔 Meredith Salenger
       迈克尔·贝亚蒂 Michael Beattie
       大卫·阿克德 David Acord
       斯科特·摩西尔 Scott Mosier
       杰米·卡米尔 Jaime Camil
       拉瑞恩·纽曼 Laraine Newman
       布莱恩·T·德莱尼 Brian T. Delaney
       杰西卡·迪西可 Jessica Di Cicco
       桑德拉·艾切维里亚 Sandra Echeverría
       加斯·詹宁斯 Garth Jennings
       塔拉·斯特朗 Tara Strong
       弗雷德·塔特西奥 Fred Tatasciore
       约翰·卡西尔 John Kassir
       斯科特·门维尔 Scott Menville
       马修·伍德 Matthew Wood


◎标  签 动画 | 宠物 | 喜剧 | 美国 | 搞笑 | 萌 | 2019 | 动物

◎简  介  

  《爱宠大机密2》将延续2016年夏天轰动一时的《爱宠大机密》的故事,讲述宠物在我们每天离家工作或上学后的生活。照明娱乐创始人兼首席执行官克里斯·梅勒丹德利和他长久以来的合作伙伴珍娜·海莉将共同制作这部续集。《爱宠大机密》是当时开画成绩最好的原创电影,不论是动画片还是其他类型。
  《爱宠大机密2》继续由布莱恩·林奇(《小黄人大眼萌》)编剧,并再一次由克里斯·雷纳德(《神偷奶爸》系列,《老雷斯的故事》)执导。

Video
ID                                       : 1
Format                                   : AVC
Format/Info                              : Advanced Video Codec
Format profile                           : [email protected]
Format settings                          : CABAC / 4 Ref Frames
Format settings, CABAC                   : Yes
Format settings, Reference frames        : 4 frames
Codec ID                                 : V_MPEG4/ISO/AVC
Duration                                 : 1 h 26 min
Bit rate                                 : 5 137 kb/s
Width                                    : 1 920 pixels
Height                                   : 1 036 pixels
Display aspect ratio                     : 1.85:1
Frame rate mode                          : Constant
Frame rate                               : 23.976 (24000/1001) FPS
Color space                              : YUV
Chroma subsampling                       : 4:2:0
Bit depth                                : 8 bits
Scan type                                : Progressive
Bits/(Pixel*Frame)                       : 0.108
Stream size                              : 3.09 GiB (93%)
Title                                    : The.Secret.Life.of.Pets.2.2019.1080p.WEB-DL.DD5.1.H264-FGT
Language                                 : English
Default                                  : Yes
Forced                                   : No
Color range                              : Limited
Color primaries                          : BT.709
Transfer characteristics                 : BT.709
Matrix coefficients                      : BT.709

Audio
ID                                       : 2
Format                                   : AC-3
Format/Info                              : Audio Coding 3
Commercial name                          : Dolby Digital
Codec ID                                 : A_AC3
Duration                                 : 1 h 26 min
Bit rate mode                            : Constant
Bit rate                                 : 384 kb/s
Channel(s)                               : 6 channels
Channel layout                           : L R C LFE Ls Rs
Sampling rate                            : 48.0 kHz
Frame rate                               : 31.250 FPS (1536 SPF)
Bit depth                                : 16 bits
Compression mode                         : Lossy
Stream size                              : 236 MiB (7%)
Title                                    : The.Secret.Life.of.Pets.2.2019.1080p.WEB-DL.DD5.1.H264-FGT
Language                                 : English
Service kind                             : Complete Main
Default                                  : Yes
Forced                                   : No

Menu
00:00:00.000                             : en:1
00:05:35.543                             : en:2
00:10:08.816                             : en:3
00:13:27.306                             : en:4
00:16:40.791                             : en:5
00:19:57.946                             : en:6
00:24:11.073                             : en:7
00:28:16.735                             : en:8
00:30:55.267                             : en:9
00:35:16.110                             : en:10
00:39:56.974                             : en:11
00:45:48.325                             : en:12
00:49:52.819                             : en:13
00:56:55.991                             : en:14
00:58:36.215                             : en:15
01:02:49.927                             : en:16
01:07:17.611                             : en:17
01:12:49.818                             : en:18
01:15:22.803                             : en:19
01:18:11.011                             : en:20


悠悠MP4_MP4电影下载_爱宠大机密2/Pet Pet当家2 The.Secret.Life.of.Pets.2.2019.1080p.WEB-DL.DD5.1.H264-FGT 3.3悠悠MP4_MP4电影下载_爱宠大机密2/Pet Pet当家2 The.Secret.Life.of.Pets.2.2019.1080p.WEB-DL.DD5.1.H264-FGT 3.3悠悠MP4_MP4电影下载_爱宠大机密2/Pet Pet当家2 The.Secret.Life.of.Pets.2.2019.1080p.WEB-DL.DD5.1.H264-FGT 3.3


提示:如迅雷下载提示"任务出错"、"因版权无法下载",请尝试【迅雷5】
上传的附件:
最新回复 (0)
返回
本站所有资源均收集自互联网,没有提供影片资源存储, 也未参与录制、上传,若本站收录的资源无意侵犯了您的权益, 请联系邮箱:gogoimgs#gmail.com(#=@)