[2019] [欧美] [剧情] [WEB-1080P] 旧金山的最后一个黑人 The.Last.Black.Man.in.San.Francisco.2019.1080p.WEB-DL.DD5.1.H264-FGT

uump4 11天前 66

帖子完整标题:旧金山的最后一个黑人 The.Last.Black.Man.in.San.Francisco.2019.1080p.WEB-DL.DD5.1.H264-FGT 4.56GB


悠悠MP4_MP4电影下载_旧金山的最后一个黑人 The.Last.Black.Man.in.San.Francisco.2019.1080p.WEB-DL.DD5.1.H264-FGT

◎译  名 旧金山的最后一个黑人
◎片  名 The Last Black Man in San Francisco
◎年  代 2019
◎产  地 美国
◎类  别 剧情
◎语  言 英语
◎上映日期 2019-01-26(圣丹斯电影节) / 2019-06-14(美国)
◎IMDb评分  7.8/10 from 2128 users
◎IMDb链接  http://www.imdb.com/title/tt4353250
◎豆瓣评分 7.1/10 from 142 users
◎豆瓣链接 https://movie.douban.com/subject/30211824/
◎片  长 120分钟
◎导  演 乔·塔尔博 Joe Talbot
◎编  剧 乔·塔尔博 Joe Talbot / Jimmie Fails / Rob Richert
◎主  演 Jimmie Fails
       乔纳森·梅杰斯 Jonathan Majors
       丹尼·格洛弗 Danny Glover
       蒂琪娜·阿诺 Tichina Arnold
       罗布·摩根 Rob Morgan
       迈克·艾普斯 Mike Epps
       芬·维特洛克 Finn Wittrock
       索拉·伯奇 Thora Birch
       托尼娅·格兰茨 Tonya Glanz
       迈克尔·J·格温 Michael J. Gwynn
       卡茜·亨德利 Cassie Hendry
       约翰·帕森斯 John Parsons
       Willie Hen
       Jamal Trulove
       Jello Biafra
       Michael Andrew Reed


◎标  签 美国 | 种族 | 独立 | 剧情 | 2019 | 美国电影 | Sundance19 | 乔·塔尔博

◎简  介  

  故事围绕旧金山最后一个,也是即将消失的黑人社区展开。一个黑人男子(吉米·凡尔斯饰)和他的朋友(乔纳森·梅杰斯饰)为找回属于家族的归属感,他们决定买下属于自己家族的房子。

◎获奖情况  

  第35届圣丹斯电影节(2019)
  导演奖 剧情片 乔·塔尔博

  第72届洛迦诺国际电影节(2019)
  金豹奖(提名) 乔·塔尔博

Video
ID                                       : 1
Format                                   : AVC
Format/Info                              : Advanced Video Codec
Format profile                           : [email protected]
Format settings                          : CABAC / 4 Ref Frames
Format settings, CABAC                   : Yes
Format settings, Reference frames        : 4 frames
Codec ID                                 : V_MPEG4/ISO/AVC
Duration                                 : 2 h 0 min
Bit rate                                 : 5 024 kb/s
Width                                    : 1 794 pixels
Height                                   : 1 080 pixels
Display aspect ratio                     : 5:3
Frame rate mode                          : Constant
Frame rate                               : 23.976 (24000/1001) FPS
Color space                              : YUV
Chroma subsampling                       : 4:2:0
Bit depth                                : 8 bits
Scan type                                : Progressive
Bits/(Pixel*Frame)                       : 0.108
Stream size                              : 4.23 GiB (93%)
Title                                    : The.Last.Black.Man.in.San.Francisco.2019.1080p.WEB-DL.DD5.1.H264-FGT
Language                                 : English
Default                                  : Yes
Forced                                   : No
Color range                              : Limited
Color primaries                          : BT.709
Transfer characteristics                 : BT.709
Matrix coefficients                      : BT.709

Audio
ID                                       : 2
Format                                   : AC-3
Format/Info                              : Audio Coding 3
Commercial name                          : Dolby Digital
Codec ID                                 : A_AC3
Duration                                 : 2 h 0 min
Bit rate mode                            : Constant
Bit rate                                 : 384 kb/s
Channel(s)                               : 6 channels
Channel layout                           : L R C LFE Ls Rs
Sampling rate                            : 48.0 kHz
Frame rate                               : 31.250 FPS (1536 SPF)
Bit depth                                : 16 bits
Compression mode                         : Lossy
Stream size                              : 331 MiB (7%)
Title                                    : The.Last.Black.Man.in.San.Francisco.2019.1080p.WEB-DL.DD5.1.H264-FGT
Language                                 : English
Service kind                             : Complete Main
Default                                  : Yes
Forced                                   : No

Menu
00:00:00.000                             : en:1
00:06:23.133                             : en:2
00:14:36.209                             : en:3
00:22:47.992                             : en:4
00:30:48.055                             : en:5
00:37:30.790                             : en:6
00:44:20.907                             : en:7
00:51:30.294                             : en:8
00:58:04.187                             : en:9
01:05:17.620                             : en:10
01:12:57.912                             : en:11
01:21:22.499                             : en:12
01:27:28.322                             : en:13
01:39:44.141                             : en:14
01:45:34.241                             : en:15
01:50:11.100                             : en:16


悠悠MP4_MP4电影下载_旧金山的最后一个黑人 The.Last.Black.Man.in.San.Francisco.2019.1080p.WEB-DL.DD5.1.H264-FGT悠悠MP4_MP4电影下载_旧金山的最后一个黑人 The.Last.Black.Man.in.San.Francisco.2019.1080p.WEB-DL.DD5.1.H264-FGT悠悠MP4_MP4电影下载_旧金山的最后一个黑人 The.Last.Black.Man.in.San.Francisco.2019.1080p.WEB-DL.DD5.1.H264-FGT


提示:如迅雷下载提示"任务出错"、"因版权无法下载",请尝试【迅雷5】
上传的附件:
最新回复 (0)
返回
本站所有资源均收集自互联网,没有提供影片资源存储, 也未参与录制、上传,若本站收录的资源无意侵犯了您的权益, 请联系邮箱:gogoimgs#gmail.com(#=@)