[2019] [欧美] [剧情] [WEB-1080P] 老师 Teacher.2019.1080p.WEB-DL.DD5.1.H264-FGT 3.93GB

uump4 11天前 86

帖子完整标题:老师 Teacher.2019.1080p.WEB-DL.DD5.1.H264-FGT 3.93GB


悠悠MP4_MP4电影下载_老师 Teacher.2019.1080p.WEB-DL.DD5.1.H264-FGT 3.93GB

◎译  名 老师
◎片  名 Teacher
◎年  代 2019
◎产  地 美国
◎类  别 剧情
◎语  言 英语
◎上映日期 2019-08-02(美国)
◎IMDb评分  6.2/10 from 9 users
◎IMDb链接  http://www.imdb.com/title/tt7281538
◎豆瓣评分 0/10 from 0 users
◎豆瓣链接 https://movie.douban.com/subject/30192420/
◎片  长 100分钟
◎导  演 亚当·迪克 Adam Dick
◎编  剧 亚当·迪克 Adam Dick
◎主  演 大卫·达斯马齐连 David Dastmalchian
       凯文·波拉克 Kevin Pollak
       Curtis Edward Jackson
       Esme Perez
       Matthew Garry
       Helen Joo Lee
       Alejandro Raya
       Cedric Young
       Ilyssa Fradin


◎简  介  

  A high school English teacher goes to disturbing lengths to protect his favorite students from bullies.

Video
ID                                       : 1
Format                                   : AVC
Format/Info                              : Advanced Video Codec
Format profile                           : [email protected]
Format settings                          : CABAC / 4 Ref Frames
Format settings, CABAC                   : Yes
Format settings, Reference frames        : 4 frames
Codec ID                                 : V_MPEG4/ISO/AVC
Duration                                 : 1 h 40 min
Bit rate                                 : 5 231 kb/s
Width                                    : 1 916 pixels
Height                                   : 1 076 pixels
Display aspect ratio                     : 16:9
Frame rate mode                          : Constant
Frame rate                               : 23.976 FPS
Color space                              : YUV
Chroma subsampling                       : 4:2:0
Bit depth                                : 8 bits
Scan type                                : Progressive
Bits/(Pixel*Frame)                       : 0.106
Stream size                              : 3.66 GiB (93%)
Title                                    : Teacher.2019.1080p.WEB-DL.DD5.1.H264-FGT
Language                                 : English
Default                                  : Yes
Forced                                   : No
Color range                              : Limited
Color primaries                          : BT.709
Transfer characteristics                 : BT.709
Matrix coefficients                      : BT.709

Audio
ID                                       : 2
Format                                   : AC-3
Format/Info                              : Audio Coding 3
Commercial name                          : Dolby Digital
Codec ID                                 : A_AC3
Duration                                 : 1 h 40 min
Bit rate mode                            : Constant
Bit rate                                 : 384 kb/s
Channel(s)                               : 6 channels
Channel layout                           : L R C LFE Ls Rs
Sampling rate                            : 48.0 kHz
Frame rate                               : 31.250 FPS (1536 SPF)
Bit depth                                : 16 bits
Compression mode                         : Lossy
Stream size                              : 275 MiB (7%)
Title                                    : Teacher.2019.1080p.WEB-DL.DD5.1.H264-FGT
Language                                 : English
Service kind                             : Complete Main
Default                                  : Yes
Forced                                   : No

Text
ID                                       : 3
Format                                   : UTF-8
Codec ID                                 : S_TEXT/UTF8
Codec ID/Info                            : UTF-8 Plain Text
Duration                                 : 1 h 39 min
Bit rate                                 : 67 b/s
Count of elements                        : 1509
Stream size                              : 49.0 KiB (0%)
Language                                 : English
Default                                  : Yes
Forced                                   : No

Menu
00:00:00.000                             : en:01
00:15:26.176                             : en:02
00:29:05.494                             : en:03
00:43:51.546                             : en:04
01:01:02.535                             : en:05
01:12:48.991                             : en:06
01:19:29.306                             : en:07
01:37:45.610                             : en:08


悠悠MP4_MP4电影下载_老师 Teacher.2019.1080p.WEB-DL.DD5.1.H264-FGT 3.93GB悠悠MP4_MP4电影下载_老师 Teacher.2019.1080p.WEB-DL.DD5.1.H264-FGT 3.93GB悠悠MP4_MP4电影下载_老师 Teacher.2019.1080p.WEB-DL.DD5.1.H264-FGT 3.93GB


提示:如迅雷下载提示"任务出错"、"因版权无法下载",请尝试【迅雷5】
上传的附件:
最新回复 (0)
返回
本站所有资源均收集自互联网,没有提供影片资源存储, 也未参与录制、上传,若本站收录的资源无意侵犯了您的权益, 请联系邮箱:gogoimgs#gmail.com(#=@)