[2019] [欧美] [动作] [WEB-720P] 哥斯拉2:怪兽之王 Godzilla.King.of.the.Monsters.2019.720p.AMZN.WEBRip.DDP5.1.x264-NTG 5.

uump4 8天前 52

帖子完整标题:哥斯拉2:怪兽之王 Godzilla.King.of.the.Monsters.2019.720p.AMZN.WEBRip.DDP5.1.x264-NTG 5.14GB


悠悠MP4_MP4电影下载_哥斯拉2:怪兽之王 Godzilla.King.of.the.Monsters.2019.720p.AMZN.WEBRip.DDP5.1.x264-NTG 5.

◎译  名 哥斯拉2:怪兽之王 / Godzilla 2 / 哥吉拉II怪兽之王(台) / 哥斯拉2 / 哥斯拉2018 / 哥斯拉II: 王者巨兽(港) / 哥斯拉:怪兽之王
◎片  名 Godzilla: King of the Monsters
◎年  代 2019
◎产  地 美国
◎类  别 动作 / 科幻 / 冒险 / 灾难
◎语  言 英语
◎上映日期 2019-05-25(大规模点映) / 2019-05-31(中国大陆/美国)
◎IMDb评分  6.6/10 from 52008 users
◎IMDb链接  http://www.imdb.com/title/tt3741700
◎豆瓣评分 6.4/10 from 140382 users
◎豆瓣链接 https://movie.douban.com/subject/25890017/
◎片  长 132分钟
◎导  演 迈克尔·道赫蒂 Michael Dougherty
◎编  剧 迈克尔·道赫蒂 Michael Dougherty / 扎克·希尔兹 Zach Shields / 麦克思·鲍伦斯坦 Max Borenstein
◎主  演 凯尔·钱德勒 Kyle Chandler
      维拉·法米加 Vera Farmiga
      米莉·波比·布朗 Millie Bobby Brown
      章子怡 Ziyi Zhang
      渡边谦 Ken Watanabe
      布莱德利·惠特福德 Bradley Whitford
      托马斯·米德蒂奇 Thomas Middleditch
      艾莎·辛德斯 Aisha Hinds
      莎莉·霍金斯 Sally Hawkins
      查尔斯·丹斯 Charles Dance
      大卫·斯特雷泽恩 David Strathairn
      小奥谢拉·杰克逊 O'Shea Jackson Jr.
      希·庞德 CCH Pounder
      安东尼·拉莫斯 Anthony Ramos
      杰森·莱尔斯 Jason Liles
      乔纳森·霍华德 Jonathan Howard
      莱尔·布罗卡托 Lyle Brocato
      兰德尔·P·海文斯 Randall P. Havens
      T·C·马特恩 T.C. Matherne
      吉米·冈萨雷斯 Jimmy Gonzales
      萨莎·里翁达 Sasha Rionda
      文斯·福斯特 Vince Foster
      贾斯蒂斯·利克 Justice Leak
      菲奥娜·哈丁汉姆 Fiona Hardingham
      露西·卡罗尔 Lucie Carroll
      约书亚·利瑞 Joshua Leary
      艾伦·马克森 Alan Maxson
      肯尼斯·以色列 Kenneth Israel
      阿尔·维森特 Al Vicente
      塞西尔·M·亨利 Cecil M. Henry
      迈克尔·大卫·育尔 Michael David Yuhl
      本杰明·韦弗 Benjamin Weaver
      卡梅伦·布鲁姆布罗 Cameron Brumbelow
      帕蒂·舍尔哈斯 Patti Schellhaas
      理查德·多顿 Richard Dorton
      詹姆斯·斯特林 James Sterling
      麦克斯韦·海史密斯 Maxwell Highsmith
      贾斯汀·斯劳特 Justin Slaughter
      肖恩·索斯 Shawn South
      马科·查卡 Marko Caka
      蒂莫西·卡尔 Timothy Carr


◎标  签 怪兽 | 科幻 | 灾难 | 美国 | 2019 | 特效 | 动作 | 日本

◎简  介  

  随着《哥斯拉》和《金刚:骷髅岛》在全球范围内取得成功,传奇影业和华纳兄弟影业联手开启了怪兽宇宙系列电影的新篇章—一部史诗级动作冒险巨制。在这部电影中,哥斯拉将和众多大家在流行文化中所熟知的怪兽展开较量。全新故事中,研究神秘动物学的机构“帝王组织”将勇敢直面巨型怪兽,其中强大的哥斯拉也将和魔斯拉、拉顿和它的死对头——三头王者基多拉展开激烈对抗。当这些只存在于传说里的超级生物再度崛起时,它们将展开王者争霸,人类的命运岌岌可危……

Video
ID                                       : 1
Format                                   : AVC
Format/Info                              : Advanced Video Codec
Format profile                           : [email protected]
Format settings                          : CABAC / 4 Ref Frames
Format settings, CABAC                   : Yes
Format settings, Reference frames        : 4 frames
Codec ID                                 : V_MPEG4/ISO/AVC
Duration                                 : 2 h 11 min
Bit rate mode                            : Constant
Bit rate                                 : 4 942 kb/s
Nominal bit rate                         : 6 000 kb/s
Width                                    : 1 248 pixels
Height                                   : 520 pixels
Display aspect ratio                     : 2.40:1
Frame rate mode                          : Constant
Frame rate                               : 23.976 (24000/1001) FPS
Color space                              : YUV
Chroma subsampling                       : 4:2:0
Bit depth                                : 8 bits
Scan type                                : Progressive
Bits/(Pixel*Frame)                       : 0.318
Stream size                              : 4.54 GiB (89%)
Default                                  : Yes
Forced                                   : No
Color range                              : Limited
Color primaries                          : BT.709
Transfer characteristics                 : BT.709
Matrix coefficients                      : BT.709

Audio
ID                                       : 2
Format                                   : E-AC-3
Format/Info                              : Enhanced AC-3
Commercial name                          : Dolby Digital Plus
Codec ID                                 : A_EAC3
Duration                                 : 2 h 11 min
Bit rate mode                            : Constant
Bit rate                                 : 640 kb/s
Channel(s)                               : 6 channels
Channel layout                           : L R C LFE Ls Rs
Sampling rate                            : 48.0 kHz
Frame rate                               : 31.250 FPS (1536 SPF)
Compression mode                         : Lossy
Stream size                              : 603 MiB (11%)
Language                                 : English
Service kind                             : Complete Main
Default                                  : Yes
Forced                                   : No

Text #1
ID                                       : 3
Format                                   : UTF-8
Codec ID                                 : S_TEXT/UTF8
Codec ID/Info                            : UTF-8 Plain Text
Duration                                 : 2 h 10 min
Bit rate                                 : 42 b/s
Count of elements                        : 1482
Stream size                              : 40.9 KiB (0%)
Language                                 : English
Default                                  : No
Forced                                   : No

Text #2
ID                                       : 4
Format                                   : UTF-8
Codec ID                                 : S_TEXT/UTF8
Codec ID/Info                            : UTF-8 Plain Text
Duration                                 : 2 h 11 min
Bit rate                                 : 51 b/s
Count of elements                        : 1857
Stream size                              : 49.7 KiB (0%)
Title                                    : SDH
Language                                 : English
Default                                  : No
Forced                                   : No


悠悠MP4_MP4电影下载_哥斯拉2:怪兽之王 Godzilla.King.of.the.Monsters.2019.720p.AMZN.WEBRip.DDP5.1.x264-NTG 5.悠悠MP4_MP4电影下载_哥斯拉2:怪兽之王 Godzilla.King.of.the.Monsters.2019.720p.AMZN.WEBRip.DDP5.1.x264-NTG 5.悠悠MP4_MP4电影下载_哥斯拉2:怪兽之王 Godzilla.King.of.the.Monsters.2019.720p.AMZN.WEBRip.DDP5.1.x264-NTG 5.


提示:如迅雷下载提示"任务出错"、"因版权无法下载",请尝试【迅雷5】
上传的附件:
最新回复 (0)
返回
本站所有资源均收集自互联网,没有提供影片资源存储, 也未参与录制、上传,若本站收录的资源无意侵犯了您的权益, 请联系邮箱:gogoimgs#gmail.com(#=@)