[更早] [日本] [动作] [BD-1080P] 战龙哥斯拉之决战宇宙魔龙 Godzilla.Vs.Gigan.1972.REPACK.1080p.BluRay.X264-WaLMaRT 6.55GB

uump4 11天前 33

帖子完整标题:战龙哥斯拉之决战宇宙魔龙 Godzilla.Vs.Gigan.1972.REPACK.1080p.BluRay.X264-WaLMaRT 6.55GB


悠悠MP4_MP4电影下载_战龙哥斯拉之决战宇宙魔龙 Godzilla.Vs.Gigan.1972.REPACK.1080p.BluRay.X264-WaLMaRT 6.55GB

◎译  名 战龙哥斯拉之决战宇宙魔龙 / Earth Assault Order: Godzilla vs. Gigan / Godzilla vs. Gigan / 地球攻击命令 哥斯拉对盖刚
◎片  名 地球攻撃命令 ゴジラ対ガイガン
◎年  代 1972
◎产  地 日本
◎类  别 动作 / 科幻 / 恐怖 / 冒险
◎语  言 日语
◎上映日期 1972-03-12(日本)
◎IMDb评分 5.7/10 from 3454 users
◎IMDb链接 http://www.imdb.com/title/tt0068371
◎豆瓣评分 5.6/10 from 140 users
◎豆瓣链接 https://movie.douban.com/subject/2062627/
◎片  长 89 分钟
◎导  演 福田纯 Jun Fukuda
◎编  剧 关泽新一 Shinichi Sekizawa
◎主  演 石川博
      梅田智子 Tomoko Umeda
      菱美百合子 Yuriko Hishimi
      高岛稔
      藤田渐
      西泽俊明 Toshiaki Nishizawa
      村井国夫 Kunio Murai


◎标  签 哥斯拉 | 日本 | 特摄 | 科幻 | 日本电影 | 电影 | 1972 | 童年回忆

◎简  介

  小高源吾是个喜爱怪兽的漫画家,但是自己所创作的怪兽往往不被自己的上司所欣赏,某天一个怪兽游乐园的人看中了他的作品于是雇用了小高,起初小高还很高兴的接下了这项工作,但是在过程当中却不断的发生奇怪的事情,也因此使得在怪兽岛的哥吉拉派遣安基拉斯来到日本,结果小高发现这居然是一场阴谋,而且这个阴谋正是以哥吉拉跟地球为目标.......
Video
ID : 1
Format : AVC
Format/Info : Advanced Video Codec
Format profile : [email protected]
Format settings : CABAC / 5 Ref Frames
Format settings, CABAC : Yes
Format settings, Reference frames : 5 frames
Codec ID : V_MPEG4/ISO/AVC
Duration : 1 h 29 min
Bit rate : 9 624 kb/s
Width : 1 920 pixels
Height : 816 pixels
Display aspect ratio : 2.35:1
Frame rate mode : Constant
Frame rate : 23.976 (23976/1000) FPS
Color space : YUV
Chroma subsampling : 4:2:0
Bit depth : 8 bits
Scan type : Progressive
Bits/(Pixel*Frame) : 0.256
Stream size : 5.86 GiB (89%)
Writing library : x264 core 142 r2431 ac76440
Encoding settings : cabac=1 / ref=5 / deblock=1:0:0 / analyse=0x3:0x113 / me=umh / subme=7 / psy=1 / psy_rd=1.00:0.00 / mixed_ref=1 / me_range=16 / chroma_me=1 / trellis=1 / 8x8dct=1 / cqm=0 / deadzone=21,11 / fast_pskip=1 / chroma_qp_offset=-2 / threads=12 / lookahead_threads=2 / sliced_threads=0 / nr=0 / decimate=1 / interlaced=0 / bluray_compat=0 / constrained_intra=0 / bframes=3 / b_pyramid=2 / b_adapt=2 / b_bias=0 / direct=3 / weightb=1 / open_gop=0 / weightp=2 / keyint=250 / keyint_min=23 / scenecut=40 / intra_refresh=0 / rc_lookahead=50 / rc=2pass / mbtree=1 / bitrate=9624 / ratetol=1.0 / qcomp=0.60 / qpmin=0 / qpmax=69 / qpstep=4 / cplxblur=20.0 / qblur=0.5 / ip_ratio=1.40 / aq=1:1.00
Default : Yes
Forced : No

Audio #1
ID : 2
Format : AC-3
Format/Info : Audio Coding 3
Commercial name : Dolby Digital
Codec ID : A_AC3
Duration : 1 h 29 min
Bit rate mode : Constant
Bit rate : 448 kb/s
Channel(s) : 2 channels
Channel layout : L R
Sampling rate : 48.0 kHz
Frame rate : 31.250 FPS (1536 SPF)
Bit depth : 16 bits
Compression mode : Lossy
Stream size : 286 MiB (4%)
Title : English
Language : English
Service kind : Complete Main
Default : Yes
Forced : No

Audio #2
ID : 3
Format : AC-3
Format/Info : Audio Coding 3
Commercial name : Dolby Digital
Codec ID : A_AC3
Duration : 1 h 29 min
Bit rate mode : Constant
Bit rate : 448 kb/s
Channel(s) : 2 channels
Channel layout : L R
Sampling rate : 48.0 kHz
Frame rate : 31.250 FPS (1536 SPF)
Bit depth : 16 bits
Compression mode : Lossy
Stream size : 286 MiB (4%)
Title : Japanese
Language : Japanese
Service kind : Complete Main
Default : No
Forced : No

Text #1
ID : 4
Format : UTF-8
Codec ID : S_TEXT/UTF8
Codec ID/Info : UTF-8 Plain Text
Title : English Forced
Default : Yes
Forced : No

Text #2
ID : 5
Format : UTF-8
Codec ID : S_TEXT/UTF8
Codec ID/Info : UTF-8 Plain Text
Title : English
Language : English
Default : No
Forced : No

Menu
00:00:00.000 : en:00:00:00.000
00:02:09.338 : en:00:02:09.338
00:17:21.415 : en:00:17:21.415
00:28:09.563 : en:00:28:09.563
00:36:32.482 : en:00:36:32.482
00:43:19.680 : en:00:43:19.680
00:45:59.048 : en:00:45:59.048
00:48:59.728 : en:00:48:59.728
00:58:19.955 : en:00:58:19.955
01:07:22.247 : en:01:07:22.247
01:10:30.184 : en:01:10:30.184
01:16:38.844 : en:01:16:38.844
01:27:40.172 : en:01:27:40.172

悠悠MP4_MP4电影下载_战龙哥斯拉之决战宇宙魔龙 Godzilla.Vs.Gigan.1972.REPACK.1080p.BluRay.X264-WaLMaRT 6.55GB悠悠MP4_MP4电影下载_战龙哥斯拉之决战宇宙魔龙 Godzilla.Vs.Gigan.1972.REPACK.1080p.BluRay.X264-WaLMaRT 6.55GB悠悠MP4_MP4电影下载_战龙哥斯拉之决战宇宙魔龙 Godzilla.Vs.Gigan.1972.REPACK.1080p.BluRay.X264-WaLMaRT 6.55GB


提示:如迅雷下载提示"任务出错"、"因版权无法下载",请尝试【迅雷5】
上传的附件:
最新回复 (0)
返回
本站所有资源均收集自互联网,没有提供影片资源存储, 也未参与录制、上传,若本站收录的资源无意侵犯了您的权益, 请联系邮箱:gogoimgs#gmail.com(#=@)